<?xml version="1.0" standalone="no"?>
<!DOCTYPE svg PUBLIC "-//W3C//DTD SVG 1.1//EN" "http://www.w3.org/Graphics/SVG/1.1/DTD/svg11.dtd" >
<svg xmlns="http://www.w3.org/2000/svg">
<metadata></metadata>
<defs>
<font id="chopinscriptmedium" horiz-adv-x="2172" >
<font-face units-per-em="2048" ascent="1638" descent="-410" />
<missing-glyph horiz-adv-x="552" />
<glyph horiz-adv-x="2048" />
<glyph horiz-adv-x="2048" />
<glyph unicode="&#xd;" horiz-adv-x="2048" />
<glyph unicode=" "  horiz-adv-x="552" />
<glyph unicode="&#x09;" horiz-adv-x="552" />
<glyph unicode="&#xa0;" horiz-adv-x="552" />
<glyph unicode="!" horiz-adv-x="671" d="M-6 82q0 46 37 84.5t82 38.5q38 0 62 -29t24 -74q0 -46 -36.5 -84t-82.5 -38q-38 0 -62 28.5t-24 73.5zM250 369q41 78 61 125l299 704q34 84 84 139.5t94 55.5q25 0 39.5 -22t14.5 -58q0 -60 -73 -186t-275 -414l-222 -344h-22z" />
<glyph unicode="&#x22;" horiz-adv-x="542" d="M383 946q33 64 75.5 180.5t73.5 181t62 64.5q10 0 16 -9.5t6 -21.5q0 -34 -33.5 -93t-93 -148.5t-92.5 -153.5h-14zM598 946q33 64 75.5 180.5t73.5 181t62 64.5q10 0 16 -9.5t6 -21.5q0 -34 -33.5 -93t-93 -148.5t-92.5 -153.5h-14z" />
<glyph unicode="#" horiz-adv-x="542" d="M31 401l12 25h150q71 168 75 176h-131l13 23h126q122 270 166 270q10 0 16.5 -10.5t6.5 -22.5q0 -49 -100 -237h131q122 270 166 270q10 0 16 -10.5t6 -22.5q0 -49 -100 -237h100l-12 -23h-101q-45 -88 -94 -176h101l-13 -25h-102q-72 -127 -141 -258h-37q34 65 114 258 h-155q-85 -148 -142 -258h-36q34 65 114 258h-149zM258 426h154q71 168 75 176h-135q-45 -88 -94 -176z" />
<glyph unicode="$" horiz-adv-x="757" d="M-25 418q0 78 55 137t128 59q59 0 99 -36.5t40 -90.5q0 -43 -30 -76.5t-70 -33.5q-24 0 -45 16.5t-46 55.5q72 9 72 51q0 19 -14.5 31t-36.5 12q-43 0 -77 -45.5t-34 -102.5q0 -66 48 -110.5t120 -44.5q64 0 117 49.5t53 109.5q0 42 -32 119l-68 187q-21 65 -21 110 q0 102 70 165.5t184 63.5q29 0 39 -2l68 125l29 -12l-64 -121q60 -18 94.5 -65t34.5 -97t-32 -85t-78 -35q-38 0 -58 19.5t-20 55.5q0 31 2 45q39 -22 63 -22q22 0 35.5 16.5t13.5 42.5q0 44 -32.5 73.5t-81.5 29.5q-54 0 -90.5 -36t-36.5 -89q0 -23 11 -68.5t24 -77.5 l63 -137q33 -73 33 -155q0 -117 -73 -186.5t-193 -69.5q-70 0 -119 12l-107 -199l-35 12l109 203q-111 76 -111 197z" />
<glyph unicode="%" horiz-adv-x="1032" d="M-123 -80q47 144 100.5 231.5t161.5 198.5l140 152q131 147 198 228t205 263l-150 -26q-45 -128 -127 -206.5t-153 -78.5q-54 0 -93.5 41.5t-39.5 101.5q0 75 49.5 166.5t129 157t153.5 65.5q46 0 72 -31.5t26 -86.5q0 -47 -10 -95q66 5 95 11t85 30q79 114 138 167 t108 53q18 0 29.5 -10t11.5 -25q0 -41 -55 -88t-187 -119q-132 -199 -312.5 -433t-265.5 -337q-35 -42 -77 -107.5t-67 -110.5l-24 -44q-12 -13 -41 -13h-24q-13 0 -25.5 -14t-19.5 -29l-6 -14zM240 784q0 -55 51 -55q15 0 41.5 17.5t57 47t59.5 78t43 101.5 q-68 15 -91.5 33t-48.5 73q-63 -109 -87.5 -175.5t-24.5 -119.5zM348 170q0 81 55.5 172.5t131.5 151t135 59.5q52 0 81 -33t29 -92q0 -83 -41.5 -178t-113 -163.5t-146.5 -68.5q-54 0 -92.5 44t-38.5 108zM397 1090q0 -38 26.5 -59.5t74.5 -24.5q16 50 16 88q0 69 -53 69 q-25 0 -44.5 -21.5t-19.5 -51.5zM467 123q0 -62 43 -62q21 0 59.5 30.5t76.5 77t66.5 112t28.5 125.5q0 33 -2 51t-14.5 33.5t-36.5 15.5q-47 0 -100.5 -73.5t-87 -163.5t-33.5 -146zM793 1073q97 56 137.5 87t40.5 57q0 7 -6 11.5t-13 4.5q-27 0 -64.5 -38.5t-94.5 -121.5z " />
<glyph unicode="&#x26;" horiz-adv-x="1748" d="M14 512q0 58 27 97t70 42q-5 -83 -5 -86q0 -115 71.5 -195.5t174.5 -80.5q37 0 99 10q-19 92 -19 150q0 200 127.5 336.5t325.5 136.5q-44 60 -58 96.5t-14 93.5q0 145 108.5 240.5t274.5 95.5q130 0 222.5 -65.5t92.5 -157.5q0 -66 -51.5 -118t-118.5 -52 q-55 0 -89.5 23.5t-65.5 80.5l33 4q30 -42 57.5 -59t66.5 -17q53 0 94.5 41.5t41.5 96.5q0 63 -51.5 103t-129.5 40q-128 0 -221.5 -93t-93.5 -222q0 -67 22 -109.5t91 -91.5l6 -23q-62 9 -105 9q-64 0 -126.5 -34.5t-110 -92.5t-73 -142t-15.5 -174q34 22 72.5 41.5 t60.5 27.5l22 9q9 102 118.5 189t293.5 145q210 65 313 110t145 91.5t42 115.5q0 37 -10.5 62.5t-42.5 68.5l14 15q44 -43 60 -73.5t16 -74.5q0 -80 -67.5 -156.5t-182.5 -131.5q-56 -27 -142.5 -64.5t-145.5 -64t-77 -37.5q116 -6 184 -88t68 -189q0 -173 -136 -292 t-335 -119q-156 0 -288.5 74.5t-182.5 197.5q-77 -19 -129 -19q-134 0 -231 82.5t-97 196.5zM680 348q18 -117 121.5 -210t228.5 -93q138 0 239 102t101 242q0 101 -70 169.5t-172 68.5q-59 0 -96.5 -24.5t-85.5 -92.5q90 20 117 20q72 0 126 -49.5t54 -115.5 q0 -62 -50.5 -104t-125.5 -42q-92 0 -163 57t-75 158q-88 -41 -149 -86zM920 395q0 -64 42 -103.5t107 -39.5q52 0 89.5 35.5t37.5 85.5q0 54 -40 90.5t-99 36.5q-11 0 -23 -1.5t-19.5 -3t-22.5 -6.5t-19 -6t-23 -8t-20 -8q-10 -34 -10 -72z" />
<glyph unicode="'" horiz-adv-x="323" d="M301 1008q0 7 5.5 11t17 9t18.5 10q64 48 64 82q0 21 -15 27q-80 39 -80 100q0 48 35 86.5t80 38.5q36 0 64 -28t28 -66q0 -63 -23 -112t-81 -113q-56 -60 -95 -60q-18 3 -18 15z" />
<glyph unicode="(" horiz-adv-x="696" d="M231 299q0 225 64.5 399t202.5 342q91 110 192 207.5t181 160.5t150 110t109.5 67.5t49.5 20.5q5 0 13.5 0.5t12 0t8 -2t6 -5t1.5 -10.5q0 -20 -28 -45.5t-74.5 -54t-112 -78t-134 -108.5t-148 -155t-146.5 -210q-138 -234 -185.5 -495t8.5 -492q17 -70 60 -141 t83.5 -115.5t72.5 -81t32 -49.5q0 -33 -22 -33q-25 0 -71.5 35.5t-102.5 105.5t-105.5 160t-83 214.5t-33.5 252.5z" />
<glyph unicode=")" horiz-adv-x="696" d="M-334 -453q0 18 20 38t57.5 45.5t85 57t107 79.5t120 105.5t128 143t125.5 183.5q137 233 184.5 495t-8.5 492q-17 70 -59.5 141t-83.5 115.5t-72.5 81t-31.5 49.5q0 33 22 33q25 0 71.5 -35.5t102 -105.5t105 -160t83 -214.5t33.5 -252.5q0 -226 -64 -400t-202 -342 q-91 -110 -192 -207.5t-181 -160.5t-150 -109.5t-109.5 -67t-49.5 -20.5q-5 0 -13.5 -0.5t-12 -0.5t-8 1.5t-6 5t-1.5 10.5z" />
<glyph unicode="*" horiz-adv-x="548" d="M258 881q0 25 22 45t54 26q93 19 114 33q15 10 15 21q0 9 -14 12.5t-40 7t-42 8.5q-39 14 -39 51q0 31 27 51.5t61 20.5q10 0 18.5 -2t15 -7.5t10.5 -9t9 -14t6.5 -14t6 -17l5.5 -16.5q5 -15 14 -28.5t15 -10.5q20 8 25 49q3 17 5.5 37t3.5 30t4 21t9 19q18 25 34.5 35 t45.5 10q26 0 42.5 -13.5t16.5 -35.5q0 -30 -71 -92q-8 -8 -28 -22.5t-30 -24t-6 -13.5q15 -19 99 41q44 27 75 27q25 0 40.5 -13t15.5 -36q0 -31 -32 -53.5t-79 -22.5q-21 0 -60 11.5t-57 11.5q-7 0 -12.5 -6.5t-7.5 -14.5q-2 -13 14 -29q41 -44 50.5 -56.5t9.5 -23.5 q0 -31 -28 -54t-65 -23q-23 0 -40 16t-17 39q0 10 13.5 40.5t15.5 41.5q6 29 -4 29q-11 0 -38 -21t-52 -51q-43 -62 -95 -62q-22 0 -38.5 16t-16.5 36z" />
<glyph unicode="+" horiz-adv-x="688" d="M-6 535l31 30h165l142 250h143l-141 -250h203l-31 -30h-189l-141 -252h-143l141 252h-180z" />
<glyph unicode="," horiz-adv-x="499" d="M43 -160q0 7 5.5 11.5t17 9.5t18.5 10q63 47 63 82q0 21 -14 27q-80 39 -80 100q0 48 35 86.5t80 38.5q36 0 64 -28t28 -66q0 -64 -23 -113t-81 -113q-55 -59 -95 -59q-18 2 -18 14z" />
<glyph unicode="-" horiz-adv-x="548" d="M37 309q0 22 51 51q3 2 13.5 8t13 7.5t11 6.5t11 6t10 4.5t11.5 4t10.5 2.5t12.5 2.5t13 1t15 0.5q23 0 81.5 -8t71.5 -8q35 0 68 7t41 7q6 0 7 -2t1 -10q0 -5 -3 -15t-14 -25.5t-27.5 -28t-46.5 -22t-69 -9.5q-6 0 -82.5 11t-125.5 11q-13 0 -33.5 -7t-28.5 -7 q-5 0 -8.5 3.5t-3.5 8.5z" />
<glyph unicode="." horiz-adv-x="499" d="M37 82q0 46 37 84.5t82 38.5q38 0 62 -29t24 -74q0 -46 -37 -84t-82 -38q-38 0 -62 28.5t-24 73.5z" />
<glyph unicode="/" horiz-adv-x="737" d="M-184 -78q0 73 143 309q182 294 353 517t505 600l35 -5q-163 -193 -484 -661t-374 -608q-19 -50 -36 -69t-50 -25q-15 -3 -23 -3q-11 0 -18 -8.5t-14 -24.5t-11 -22q-8 -12 -16 -12q-7 0 -8.5 2t-1.5 10z" />
<glyph unicode="0" horiz-adv-x="1069" d="M-72 252q0 86 31.5 194t85.5 217t131.5 213t164.5 184.5t189.5 129.5t200.5 49q112 0 185 -59t73 -179q0 -116 -41.5 -254.5t-117.5 -272t-172.5 -244t-218.5 -178.5t-244 -68q-114 0 -190.5 77.5t-76.5 190.5zM59 141q0 -48 40 -88.5t89 -40.5q73 0 165.5 80t177 205.5 t157.5 266t116.5 274.5t43.5 219q0 80 -29.5 120t-79.5 40q-75 0 -194.5 -130.5t-225.5 -305t-183 -358t-77 -282.5z" />
<glyph unicode="1" horiz-adv-x="612" d="M-188 -135q23 79 40 131.5t33 92t22 54t25 51t25 48.5q47 92 153 235.5t179.5 236.5t64.5 93q-12 0 -62.5 -42.5t-95.5 -84.5l-44 -43l-48 -23q16 21 127.5 135t243 231.5t168.5 117.5q10 0 12.5 -1t0 -4.5t-2.5 -5.5q0 -8 -84.5 -126.5t-200 -294.5t-173.5 -299 q-43 -89 -83.5 -193t-62.5 -161.5t-31 -65.5q-5 -5 -39 -5.5t-65 1.5l-31 2q-46 -68 -71 -80z" />
<glyph unicode="2" horiz-adv-x="927" d="M-322 -23q0 30 72 108t135 132q62 55 187.5 127t233.5 130.5t132 80.5q106 100 179 216t73 198q0 69 -55.5 117.5t-132.5 48.5q-93 0 -170.5 -70t-77.5 -156q0 -41 24.5 -69.5t57.5 -28.5q19 0 36 15.5t17 33.5q0 15 -7.5 36.5t-8.5 29.5q35 8 59.5 0t35.5 -26.5 t15 -34.5t4 -31q0 -50 -37 -83.5t-92 -33.5q-65 0 -106 43t-41 112q0 76 53.5 147t141.5 115t182 44q121 0 192.5 -72.5t71.5 -196.5q0 -74 -30.5 -139t-85 -115t-118.5 -91t-141 -75t-142 -59.5t-133 -51t-102 -42.5q-84 -41 -176 -112.5t-92 -98.5q14 0 90 13t123 14 q59 1 151 -18t128 -19q44 0 90 24t125 88q11 -33 -14.5 -81t-71.5 -91t-109.5 -73.5t-122.5 -30.5q-61 0 -149.5 21.5t-130.5 21.5q-78 0 -130 -6t-69.5 -12.5t-29.5 -12.5t-19 -6q-2 0 -8 4.5t-7 9.5v6z" />
<glyph unicode="3" horiz-adv-x="995" d="M-123 184q0 88 60.5 157t136.5 69q54 0 94.5 -41.5t40.5 -94.5q0 -49 -33 -82.5t-80 -33.5q-20 0 -40 14.5t-33 42.5q69 17 69 49q0 29 -15.5 47.5t-45.5 18.5q-55 0 -92 -43.5t-37 -108.5q0 -76 51.5 -123t142.5 -47q56 0 111.5 23.5t100.5 62.5t84.5 89t66 102t42 103 t15.5 91q0 53 -41 88t-102 35q-27 0 -55.5 -13t-47.5 -25.5t-24 -12.5q-8 0 -19.5 5t-11.5 9l539 373q-10 3 -48.5 14.5t-63.5 18t-64.5 12t-73.5 4.5q-45 -2 -89 -14t-95 -33t-62 -25q5 8 13.5 22.5t39 50.5t64.5 63.5t88.5 50t111.5 22.5q37 0 138 -24.5t178 -24.5 q66 0 172 49l-627 -444q39 -4 78.5 -21.5t77 -49.5t61 -86.5t23.5 -123.5q0 -118 -75.5 -228t-199 -176.5t-256.5 -66.5q-113 0 -190.5 75t-77.5 181z" />
<glyph unicode="4" horiz-adv-x="968" d="M-88 338q0 38 92.5 120.5t243.5 205t233 208.5l258 281l115 -6l57 51q2 -27 -4 -45q-9 -25 -25 -49t-38.5 -46.5t-37 -35.5t-39 -32.5t-26.5 -20.5q-86 -67 -205.5 -150.5t-211 -145t-176.5 -123.5t-131 -111t-46 -83q0 -25 64 -40.5t137 -10.5l150 8q3 3 22.5 33.5 t56 84.5t85 120.5t123 157.5t155.5 180q1 1 9 10t14 14.5t14.5 11t15.5 5.5q4 0 -83 -151t-176 -302l-89 -151l264 20q-10 -19 -23 -48t-24 -48q-32 0 -123 5t-114 5q-11 -22 -45 -105.5t-62 -137.5t-45 -54q-16 0 -42 5t-44 10l-18 6q-47 -66 -76 -76q8 55 44 130t82 150 t48 78l-207 6q-84 4 -128 16.5t-44 49.5z" />
<glyph unicode="5" horiz-adv-x="923" d="M-166 178q0 82 59.5 145.5t135.5 63.5q55 0 96 -40.5t41 -94.5q0 -44 -31 -77.5t-76 -33.5q-23 0 -37 13.5t-28 46.5q33 5 47 17.5t14 39.5q0 26 -20.5 42.5t-50.5 16.5q-45 0 -84 -41.5t-39 -99.5q0 -81 56 -131.5t157 -50.5q64 0 131.5 43.5t121.5 111t97.5 145.5 t67.5 152t24 125q0 82 -48 135.5t-124 53.5q-38 0 -74 -23t-58 -50t-41 -50t-26 -23q-20 0 25 76l217 379q30 52 89 80.5t112 28.5q48 0 110.5 -21.5t85.5 -21.5q47 0 116 34.5t75 34.5q5 0 5.5 -1t0.5 -7q0 -9 -4 -17.5t-16 -24t-15 -19.5q-22 -31 -60 -59.5t-65.5 -43 t-34.5 -14.5q-60 0 -150.5 8t-121.5 8q-73 0 -147 -59l-127 -219q93 41 190 41t173.5 -89.5t76.5 -205.5q0 -105 -49 -206.5t-128.5 -177t-187 -121.5t-217.5 -46q-114 0 -189 65t-75 162z" />
<glyph unicode="6" horiz-adv-x="985" d="M-43 231q0 144 69 319.5t187 326.5q125 166 274.5 258t298.5 92q88 0 151.5 -47t63.5 -111q0 -51 -40.5 -91t-94.5 -40q-38 0 -66 28t-28 66q0 19 5.5 28t25.5 15q32 -43 57 -43q26 0 44 23.5t18 56.5q0 45 -39.5 68.5t-96.5 23.5q-35 0 -71 -12.5t-66 -31t-63 -51 t-57 -59.5t-53 -70.5t-46 -70.5t-42 -72.5t-34.5 -64t-29.5 -57.5q34 22 96 40.5t96 18.5q95 0 161 -77t66 -187q0 -101 -46.5 -204.5t-118 -180.5t-162.5 -125.5t-176 -48.5q-117 0 -200 82t-83 198zM104 109q0 -55 31 -88t84 -33q44 0 110 62t126 151.5t103.5 199 t43.5 195.5q0 68 -34 101.5t-95 33.5q-70 0 -115.5 -28t-87.5 -93q-69 -107 -117.5 -264.5t-48.5 -236.5z" />
<glyph unicode="7" horiz-adv-x="892" d="M-208 -61.5q1 4.5 3 16t2 20.5q0 27 48.5 114t121.5 192t174 212.5t191 163.5q107 66 205 141.5t161.5 135.5t100.5 99.5t49 56.5q-22 0 -80 -13t-92 -16q-56 -6 -164.5 8t-144.5 0q-35 -8 -81 -29.5t-75 -39.5l-29 -17q67 132 130 185t167 53q40 0 146 -23.5t172 -23.5 q35 0 89 26l54 27q9 0 16 -5t7 -12q0 -22 -88 -123.5t-287.5 -318t-319.5 -352.5q-59 -66 -123 -171.5t-101.5 -176t-43.5 -70.5q-8 0 -32 10.5t-38 11.5q-36 3 -64.5 -18t-47 -46.5t-25.5 -27.5q-2 6 -1 10.5z" />
<glyph unicode="8" horiz-adv-x="1064" d="M-66 281q0 131 108 224.5t357 151.5q-55 107 -55 203q0 147 111 248.5t276 101.5q125 0 210 -65.5t85 -163.5q0 -110 -101.5 -192t-281.5 -119q21 -29 43.5 -66t48 -104t25.5 -121q0 -170 -135.5 -289t-329.5 -119q-148 0 -254.5 92.5t-106.5 217.5zM92 264 q0 -108 59.5 -186t143.5 -78q113 0 207 104.5t94 225.5q0 103 -174 295q-60 -5 -119 -36t-106 -78.5t-76 -113t-29 -133.5zM489 952q0 -83 41 -156t86 -98q128 44 204.5 132.5t76.5 193.5q0 80 -42.5 123t-123.5 43q-47 0 -102.5 -30.5t-97.5 -87.5t-42 -120z" />
<glyph unicode="9" horiz-adv-x="1003" d="M-182 145q0 44 44.5 86.5t96.5 42.5q41 0 67.5 -21.5t26.5 -57.5q-18 -48 -28 -66q-14 21 -33.5 35t-32.5 14q-24 0 -40.5 -20.5t-16.5 -48.5q0 -45 31.5 -74t84.5 -29q114 0 219 104t248 363q-55 -24 -93 -30.5t-93 -6.5q-86 0 -143.5 75t-57.5 183q0 134 74.5 261 t196.5 205.5t252 78.5q113 0 185.5 -76t72.5 -194q0 -107 -44 -241t-124.5 -264.5t-181.5 -240.5t-226.5 -178t-247.5 -68q-94 0 -165.5 51.5t-71.5 116.5zM233 602q0 -56 37 -95.5t92 -39.5q69 0 140.5 66t123 162t84.5 204.5t33 192.5q0 49 -25.5 87t-68.5 38 q-81 0 -182 -120.5t-167.5 -266.5t-66.5 -228z" />
<glyph unicode=":" horiz-adv-x="499" d="M-53 72q0 46 37 84.5t82 38.5q38 0 62 -29t24 -74q0 -46 -37 -84.5t-82 -38.5q-38 0 -62 29t-24 74zM184 498q0 46 37 84.5t82 38.5q38 0 62 -29t24 -74q0 -46 -37 -84.5t-82 -38.5q-38 0 -62 29t-24 74z" />
<glyph unicode=";" horiz-adv-x="499" d="M-47 -160q0 7 5.5 11.5t17 9.5t18.5 10q63 47 63 82q0 21 -14 27q-80 39 -80 100q0 48 35 86.5t80 38.5q36 0 64 -28t28 -66q0 -64 -23 -113t-81 -113q-55 -59 -95 -59q-18 2 -18 14zM164 498q0 46 37 84.5t82 38.5q38 0 62 -29t24 -74q0 -46 -37 -84.5t-82 -38.5 q-38 0 -62 29t-24 74z" />
<glyph unicode="&#x3c;" horiz-adv-x="645" d="M152 469l544 287l-20 -60l-432 -227l266 -229l-23 -58z" />
<glyph unicode="=" horiz-adv-x="548" d="M152 350l18 51h352l-18 -51h-352zM227 522l19 51h348l-19 -51h-348z" />
<glyph unicode="&#x3e;" horiz-adv-x="647" d="M100 182l23 58l430 229l-264 227l20 60l336 -287z" />
<glyph unicode="?" horiz-adv-x="1069" d="M23 82q0 46 36.5 84.5t81.5 38.5q38 0 62 -29t24 -74q0 -46 -36.5 -84t-81.5 -38q-38 0 -62 28.5t-24 73.5zM195 428q0 29 16.5 60t42.5 51q17 14 303 194q59 36 170 139q85 82 122.5 144.5t37.5 122.5q0 82 -62 134t-157 52q-103 0 -197 -51q-104 -59 -177 -153 t-73 -173q0 -44 28 -72t70 -28q49 0 113 37l21 -6q-42 -31 -69.5 -42.5t-68.5 -11.5q-50 0 -83 34t-33 87q0 110 76 213.5t200 167.5t256 64q127 0 216 -75.5t89 -182.5q0 -103 -93 -219.5t-228 -180.5l-426 -211q-24 -12 -45 -41.5t-21 -52.5q0 -28 21 -44.5t57 -16.5 q24 0 51 8l23 -15q-48 -12 -94 -16q-36 0 -61 24t-25 60z" />
<glyph unicode="@" horiz-adv-x="1415" d="M-11.5 240.5q-18.5 116.5 19.5 253.5q52 194 185 355.5t313.5 254t367.5 92.5q228 0 335.5 -136t50.5 -347q-31 -114 -116 -244t-179 -205q-63 -49 -111 -71.5t-102 -22.5q-105 0 -140.5 41.5t-11.5 148.5q-90 -120 -194 -120q-63 0 -101.5 52t-38.5 150q0 70 35 147 t93.5 143.5t146.5 109.5t184 43q36 0 59 -9.5t45 -39.5q23 30 43 30q12 0 43 -6t43 -6q8 0 32.5 25.5t35.5 29.5l-268 -503q-41 -76 -43 -107q0 -78 90 -78q33 0 70.5 24.5t95.5 76.5q78 72 149 184.5t97 208.5q55 201 -43.5 322.5t-303.5 121.5q-172 0 -335.5 -82.5 t-289.5 -236.5t-179 -351q-74 -281 42 -434t373 -153q195 0 372.5 103.5t309.5 293.5h41q-39 -68 -80.5 -117.5t-101.5 -101.5q-121 -106 -266.5 -163.5t-290.5 -57.5q-133 0 -237 48t-162.5 132.5t-77 201zM387 338q0 -36 8 -52t33 -16q27 0 52 12.5t46 36t34.5 42.5 t29.5 45q209 356 209 393q0 19 -11.5 34t-31.5 15q-63 0 -132.5 -63.5t-119.5 -149t-83.5 -169.5t-33.5 -128z" />
<glyph unicode="A" d="M-16 365q0 331 200 534t527 203q46 0 118 -25v-24q-71 26 -118 26q-166 0 -301.5 -58t-222.5 -156.5t-134 -227t-47 -272.5q0 -208 103 -377.5t285.5 -266t408.5 -96.5q95 0 207 26.5t204 64.5t170.5 76t123.5 64l44 27l-73 66q-4 -1 -11.5 -2.5t-29.5 -4t-41.5 -3.5 t-44 1.5t-41.5 9t-29 20.5t-12 34q0 27 22 36t54 3t63.5 -15.5t53.5 -19.5l22 -10q18 0 85 60t75 81q1 3 24 55.5t43.5 103t44.5 116t38.5 124t14.5 97.5q-97 -19 -249 -19q-15 -21 -56.5 -86.5t-77.5 -118.5t-91 -126.5t-111.5 -129.5t-122.5 -107t-141 -79t-150 -28 q-153 0 -237.5 74.5t-84.5 191.5q0 84 41.5 164t112 141t173 98t216.5 37h510q62 133 160 258q84 106 176 190t163.5 129.5t131 75.5t91.5 39l32 9q8 0 14 -10.5t6 -22.5q0 -14 -14.5 -31.5t-38 -39t-52.5 -50.5t-59.5 -73.5t-57.5 -100t-47 -138t-28 -180.5q8 3 22.5 8.5 t56 26t79 45.5t83.5 67.5t79 91t55.5 117t22.5 144.5q0 144 -89.5 264t-244.5 189t-340 69q-147 0 -279.5 -49t-221.5 -126t-141 -171t-52 -184q0 -84 22 -153.5t53.5 -108.5t63.5 -66t54 -36l22 -9l-7 -26q-10 3 -26 10t-56.5 37.5t-72 71t-57 115t-25.5 165.5q0 95 55 194 t148 180t231 133t289 52q193 0 354.5 -73t254.5 -200t93 -278q0 -81 -23.5 -155t-61.5 -126.5t-84 -97t-92 -72.5t-84 -48t-62 -29l-23 -8q-14 -119 -20 -146q-7 -29 -26.5 -74t-59 -110.5t-90 -129.5t-127.5 -131.5t-164 -115.5q50 -46 61 -57q150 93 226 138.5t148 86 t113.5 53.5t79 20t87.5 7q115 0 194.5 -69.5t79.5 -168.5q0 -82 -59.5 -155t-145.5 -114.5t-170 -43.5h-13q-49 0 -99 6q-56 8 -101.5 19.5t-91.5 30t-78 34.5t-67 37.5t-53 34.5t-40.5 30t-25.5 19q-1 -1 -36.5 -21.5t-74 -41t-98 -50t-124 -54t-136.5 -47t-150.5 -35.5 t-150.5 -13q-233 0 -420.5 98t-293 272t-105.5 390zM586 207q0 -238 225 -238q47 0 95 14t90 35t87.5 56.5t81 68.5t76.5 80.5t69 84t64 87t55.5 81t49 75.5t39.5 61h-412q-138 0 -259 -57t-191 -150.5t-70 -197.5zM1313 -2q0 -23 28 -27.5t56 2.5l28 7q-7 4 -18.5 9.5 t-36 15.5t-41 9t-16.5 -16zM1583 647q33 0 109 5.5t120 13.5q14 89 59 184t97 165.5t101.5 129t76 89t17.5 30.5q-39 0 -158 -93t-211 -198q-90 -102 -143.5 -193t-67.5 -133zM1610 -117q9 -8 25.5 -21.5t71 -47.5t112.5 -60t146.5 -47.5t176.5 -21.5q80 0 160.5 39.5 t133 106t52.5 136.5q0 91 -69.5 151t-173.5 60q-109 0 -197.5 -40.5t-354.5 -203.5q-54 -33 -83 -51z" />
<glyph unicode="B" horiz-adv-x="2179" d="M20 522q0 147 59.5 284.5t157.5 238.5t232 162t276 61q114 0 254 -60q17 10 63.5 38t67.5 40t69 32.5t89 29.5t105 16.5t139 7.5q82 0 155.5 -13.5t107.5 -26t88 -37.5t63 -29q4 1 53.5 20.5t74.5 27t81.5 16.5t115.5 9q99 0 192 -32t150.5 -84.5t57.5 -108.5 q0 -49 -51.5 -90.5t-120.5 -52.5l-21 20q72 15 117 50t45 73q0 50 -55.5 97.5t-141 75.5t-172.5 28q-73 0 -130 -15t-156 -57q7 -8 32 -34.5t36.5 -39.5t31.5 -40.5t29.5 -48.5t17.5 -50t8 -59q0 -104 -55.5 -175.5t-196.5 -154.5q55 -67 77 -136.5t22 -178.5q38 12 108 55 t113 82l16 -17q-114 -98 -250 -155q-26 -66 -71.5 -125.5t-110 -110.5t-154.5 -80q-87 -28 -185 -28h-7q-65 2 -102 27.5t-37 70.5q0 56 37 100t89.5 67.5t120 39t118.5 20t95 4.5q45 41 61 138q7 43 7 89q0 59 -12 126q-20 -4 -54 -4q-25 0 -53 17.5t-28 41.5 q0 22 21.5 33.5t43.5 11.5t46.5 -11.5t38.5 -22.5l13 -11q7 6 18 16.5t39 43t50 65t39.5 77.5t17.5 85q0 201 -82 246q-36 -18 -93.5 -79.5t-96.5 -113.5l-39 -53q-41 -59 -70 -153.5t-60 -194.5t-75 -168q-66 -102 -127 -176t-139 -140t-164 -106t-196.5 -63t-243.5 -23 q-174 0 -311.5 69t-217.5 201t-80 305zM43 522q0 -116 41.5 -217t116 -174.5t185.5 -115.5t243 -42q124 0 262.5 69t247.5 185q46 49 85 104.5t68 114t45 96.5t35 91t21 57q74 196 219 345t295 208q-6 4 -18 11.5t-50.5 26.5t-79.5 33t-103 26t-124 12q-176 0 -281 -37 t-231 -123q150 -92 221.5 -205t71.5 -266q0 -17 -1 -25.5t-4 -20t-5 -26.5q3 5 17.5 27t18.5 29t12.5 24.5t11 32t3.5 31.5q1 19 -4.5 41.5t-9.5 33t-16 36t-13 26.5l23 6l14 -23q13 -23 16.5 -32t9.5 -34t7 -52q0 -98 -111 -209q-42 -127 -147.5 -209t-235.5 -82v29 q20 -3 52 2t73.5 21t80.5 41.5t74 68.5t52 96q-91 -31 -146 -31q-134 0 -214 90t-80 232q0 41 7.5 79.5t22.5 70.5t29.5 57t36.5 49t35 37.5t32.5 30.5t22.5 20q-35 19 -107 39t-125 20q-129 0 -257 -58.5t-225.5 -155.5t-158.5 -232.5t-61 -278.5zM813 842q0 -133 75 -213 t197 -80q99 0 172 67q2 6 8.5 21t8.5 19t6 15t5 16.5t2 14.5t1 19q0 58 -13.5 115t-44.5 118.5t-90 119.5t-141 104q-40 -38 -57.5 -56t-48 -55t-44 -65.5t-25 -71t-11.5 -88.5zM1331 45q0 -28 25 -44.5t61 -16.5h4q51 0 101 24q52 24 93 62.5t71 74.5t52 68t23 33h-18 q-44 0 -90 -4q-55 -5 -114 -19.5t-104 -36t-74.5 -58.5t-29.5 -83zM1729 684q0 -11 13.5 -20t26.5 -9q10 0 22 2.5t19 4.5l7 2q-31 38 -64 38q-24 0 -24 -18z" />
<glyph unicode="C" horiz-adv-x="1910" d="M6 178q0 140 45.5 276t130 250.5t197 202t255.5 136.5t296 49q83 0 183.5 -9.5t159 -17.5t60.5 -6q14 8 40 22.5t103.5 50.5t153.5 63.5t178.5 50t190.5 22.5q113 0 160 -33.5t47 -85.5q0 -74 -86 -130t-244 -56q-52 0 -150 9.5t-170 19.5l-73 9q-155 -127 -264 -258 q-116 -139 -189 -289.5t-76 -258.5q0 -78 45 -123q-2 16 -2 35q0 35 8 79q13 67 42 140.5t78 145.5t109 130t140.5 93.5t167.5 35.5q75 0 118.5 -50t43.5 -138q0 -81 -30 -162.5t-79.5 -149t-113.5 -125t-130 -95t-132 -55.5q-42 -11 -78 -11q-21 0 -39 4q5 -7 15 -17.5 t44 -28.5t70 -18q59 0 123.5 29.5t114.5 71.5t92 84.5t65 71.5l23 30l16 -18q-8 -12 -23 -32t-62.5 -71.5t-95.5 -90.5t-118 -71t-135 -32q-34 0 -67.5 11.5t-56 28.5t-40.5 34t-27 29l-8 11q-8 3 -21 10t-46.5 35.5t-59 65.5t-46.5 104.5t-21 147.5q0 78 23.5 157.5 t59.5 143.5t84 125t93.5 105.5t91 82.5t73 57t44.5 29q0 3 -64.5 11.5t-157 16t-155.5 7.5q-186 0 -355.5 -77t-288 -202t-188 -286t-69.5 -326q0 -140 44.5 -265t124.5 -219t201 -149t265 -55q93 0 207.5 32.5t224.5 79t223 92.5t239 78.5t236 32.5q155 0 285 -41.5 t206 -116.5t76 -167q0 -34 -9 -54t-36 -57q-4 4 -10 13q22 40 26.5 54.5t4.5 43.5q0 77 -74 147t-200.5 113t-268.5 43q-113 0 -237 -32.5t-232.5 -78.5t-216 -92.5t-224 -79t-220.5 -32.5q-149 0 -273.5 55.5t-208 152t-130 226t-46.5 276.5zM1032 119q0 -33 4 -50.5 t19 -56.5q21 -15 37.5 -21t22 -6.5t24.5 -0.5q68 0 142 42t135.5 108.5t111.5 143.5t78 151.5t28 127.5q0 137 -135 137q-78 0 -164 -57t-151.5 -141.5t-108.5 -187t-43 -189.5zM1526 1022q257 -37 350 -37q52 0 100.5 7t98 24t79 51t29.5 82q0 96 -184 96q-52 0 -119.5 -23 t-127 -55.5t-112 -65.5t-83.5 -56z" />
<glyph unicode="D" horiz-adv-x="1744" d="M14 588q0 57 11.5 111t31 95.5t36 70t35 53t19.5 26.5q-3 29 -3 58q0 64 14 128q20 92 73 178.5t133 153t201.5 106.5t268.5 40q192 0 356.5 -71.5t273.5 -207.5q106 33 230 33q102 0 186.5 -30.5t128.5 -76.5l-8 -16q-96 64 -150.5 81t-156.5 17q-117 0 -211 -32 q145 -205 145 -496q0 -97 -25.5 -201t-70.5 -199t-109.5 -181t-138 -148.5t-160 -99.5t-172.5 -37q-76 0 -159 30.5t-142 71.5q-5 -4 -15 -11t-41.5 -24t-64.5 -30t-82.5 -24t-97.5 -11q-118 0 -191 50.5t-73 135.5q0 63 53 106.5t142 43.5q30 0 60.5 -5.5t60 -16.5 t53.5 -22t50 -27t40.5 -25t35 -23.5t23.5 -16.5q33 22 66 98.5t82.5 209t99.5 231.5q137 271 276.5 421.5t294.5 209.5q-88 125 -241 196.5t-348 71.5q-144 0 -262 -40t-193.5 -103.5t-126 -145t-69.5 -163.5q-14 -62 -15 -122q0 -19 2 -38q1 1 13.5 12t22.5 20.5t30.5 24.5 t39 27t45 25.5t52 22.5t57 15t62.5 6q161 0 266.5 -87.5t105.5 -217.5q0 -79 -47 -143.5t-115 -97.5t-137 -33t-129 20t-100.5 52t-74 71t-52.5 78t-32 71t-18 52l-5 20q-5 -5 -12.5 -15t-27.5 -43t-35 -68t-27.5 -88.5t-12.5 -106.5t11.5 -95t47.5 -135l-18 -12 q-66 134 -66 242zM121 131q0 -64 52.5 -107.5t127.5 -43.5q55 0 122.5 35t107.5 69l40 35q-5 5 -14.5 14t-41 32t-66.5 40.5t-89 32.5t-110 16q-58 0 -93.5 -35t-35.5 -88zM174 936q1 -8 4 -21t15.5 -51t29.5 -73t49 -77t70.5 -72.5t96.5 -51.5t126 -21q63 0 125.5 31 t106 90t43.5 129q0 65 -30.5 119.5t-80.5 89t-111.5 53.5t-125.5 19q-48 0 -98.5 -17t-88 -41t-68.5 -48t-47 -41zM686 76q4 -2 31 -18.5t43.5 -25.5t43.5 -18.5t48 -9.5q129 0 254 91t215 231.5t145.5 314t55.5 334.5q0 179 -82 313q-84 -38 -148.5 -103.5t-108 -154 t-71 -166.5t-61 -186t-56.5 -166q-22 -56 -45 -104t-41 -82t-42 -67.5t-37 -51t-39 -42t-34.5 -32t-37 -30.5t-33.5 -27z" />
<glyph unicode="E" horiz-adv-x="1992" d="M-2 602q0 198 222 333.5t579 135.5q228 0 391 -37v7q0 133 108 225q109 92 264 92h7q113 -1 193.5 -74t80.5 -172q0 -87 -82 -153t-192 -66q-39 0 -78 7.5t-65.5 16t-71.5 25.5q3 -102 43 -168h-2q6 -8 42.5 -26.5t37.5 -40.5q0 -22 -25 -25q-19 -3 -39.5 9t-31.5 25 l-11 13q-38 21 -84 23q-4 0 -7 1l-85 -15q-46 -16 -91.5 -50t-80 -79t-55.5 -106.5t-21 -127.5q0 -166 96.5 -285t233.5 -119q124 0 231.5 62t170.5 166.5t63 224.5q0 97 -49.5 157t-130.5 60q-82 0 -160.5 -50.5t-126 -126t-47.5 -147.5q0 -70 41.5 -116.5t101.5 -46.5 q42 0 76.5 15.5t56 39.5t38 57.5t24.5 64t13 66t6 55.5t1 40h25q2 -29 -0.5 -63t-10 -77t-25 -82t-43 -72t-67.5 -53t-94 -20q-73 0 -122.5 56t-49.5 136q0 82 52 164t137.5 135.5t173.5 53.5q92 0 150 -69t58 -177q0 -132 -69 -245.5t-182.5 -179t-241.5 -65.5 q-125 0 -225.5 34.5t-165 96t-99 144.5t-34.5 180q0 94 33 176.5t95 145.5t160 96q77 26 168 25q25 0 51 -1q-54 79 -67 166q-164 47 -391 47q-138 0 -261 -23t-215.5 -64t-160 -96t-102.5 -121t-35 -136q0 -12 12.5 -59t17.5 -53l-24 -17q-33 59 -33 127zM1350 975 q42 -20 66.5 -29.5t65 -18.5t83.5 -9q92 0 171 56t79 138q0 71 -55 122.5t-130 51.5q-68 -1 -121.5 -28t-86 -72t-50.5 -98.5t-20 -112.5h-2z" />
<glyph unicode="F" horiz-adv-x="2101" d="M16 496q0 164 61 311t165 253t249.5 168t307.5 62q76 0 159 -21.5t128 -42.5l44 -22q9 8 25 21.5t68.5 48.5t107 61.5t135.5 48t160 21.5q114 0 222.5 -28t189 -70t165 -91.5t153 -91.5t150.5 -70t160 -28q45 0 87 16.5t70.5 40t50.5 47t32 40.5l10 16q0 -5 -4 -21 q-14 -57 -83 -108t-163 -51q-79 0 -157.5 24.5t-134 55.5t-133 70.5t-142.5 60.5q-155 49 -248 66t-225 17q-97 0 -180 -12.5t-131.5 -30.5t-83 -36t-47.5 -31l-13 -12q13 -7 38.5 -32t60 -71.5t64 -103t50.5 -134.5t21 -157q0 -119 -46.5 -233.5t-120 -197t-166.5 -133 t-183 -50.5q-126 0 -228 90t-102 204q0 17 0.5 30.5t2.5 28t3 22t5.5 24t6 21t8.5 26t9 27.5q14 -17 14 -29q-26 -76 -26 -150q0 -104 94.5 -188t212.5 -84q123 0 238 84.5t185 222.5t70 285q0 90 -26.5 175.5t-67 146.5t-76 101t-65.5 62q-40 -19 -95 -90t-98 -171 t-43 -181q0 -143 80 -221q62 -61 152 -61q25 0 53 5v-22q-30 -5 -57 -5q-98 1 -165 65q-85 82 -85 239q0 71 21 140.5t53.5 123.5t62 93.5t58 70t30.5 33.5l-15 9t-42 21t-66 26t-86.5 20.5t-105.5 9.5q-152 0 -287.5 -65.5t-228.5 -172.5t-147 -247.5t-54 -288.5 q0 -217 90.5 -394t255 -280t371.5 -103q112 0 233.5 51.5t214.5 143.5q56 55 75 80q53 74 154 333q57 146 162 429l-77 16l10 31l82 -17q72 109 127 154q97 82 180 105.5t268 29.5v-8q-5 -10 -52.5 -18t-108.5 -18.5t-89 -24.5q-46 -23 -90.5 -84.5t-65.5 -111.5l-22 -50 l121 -23q19 64 48.5 102t86.5 38q25 0 45.5 -18t20.5 -52q0 -41 -40.5 -74.5t-80.5 -38.5q1 -29 1 -58v-30q0 -46 -12 -90t-29.5 -78.5t-52 -56t-81.5 -21.5q-35 0 -70 33l15 15q41 -15 57 -15q52 0 69 140q4 29 13 165l-123 19q-6 -22 -16 -58.5t-41 -137t-62 -187 t-75 -180t-83 -142.5q-104 -131 -307.5 -222t-404.5 -91q-226 0 -405 102.5t-278.5 284.5t-99.5 410zM2001 741q22 0 54 19.5t32 56.5q0 11 -9.5 17t-21.5 6q-13 0 -30 -25t-25 -49q-4 -12 -4 -18.5t4 -6.5z" />
<glyph unicode="G" horiz-adv-x="1869" d="M-2 211q0 173 63.5 325t172.5 260t259.5 170t319.5 62q60 0 147.5 -11t145.5 -21l57 -11q16 13 45 34t119 75t178.5 95t211.5 75t231 34q87 0 146.5 -35.5t59.5 -86.5q0 -71 -151 -142.5t-391 -99.5q-77 -8 -140 -8h-8q-65 1 -98 6q-9 -6 -24 -17.5t-60 -53t-88 -89 t-98.5 -124t-100.5 -159.5q-53 -98 -70.5 -165t-21.5 -187q106 6 174 6q37 -2 90.5 -9.5t88.5 -13.5l34 -7q102 272 178 406t117 134q15 0 38 -7t39 -14l15 -7l62 86l20 -9l-366 -620l47 -27q7 8 20 21.5t58 45t94 52.5q45 19 91 28.5t69 9.5l24 -1l4 -21h-12 q-75 0 -164 -36q-50 -22 -82.5 -41.5t-46.5 -31t-37 -34.5q177 -89 346.5 -190t251.5 -154.5t176 -90t187 -36.5q81 0 145.5 25.5t101 59.5t63 80.5t36 76.5t14.5 59h21q-76 -321 -381 -321q-87 0 -167 25t-164 73t-166.5 102.5t-214 131.5t-267.5 141l-150 -189 q-5 -13 -14 -34.5t-41 -84t-69 -119.5t-98 -126.5t-127.5 -119.5t-157 -84t-187.5 -34q-79 0 -142.5 27.5t-102 70.5t-62.5 95t-31 101q-3 25 -3 47q0 21 3 40q-5 4 -14.5 11.5t-36.5 35.5t-51.5 60t-54.5 84t-51.5 108.5t-36.5 133.5t-15 159zM18 211q0 -91 19.5 -176 t47 -145.5t63.5 -114t63 -82.5t51 -49q6 21 15.5 43.5t34 68.5t73 100.5t113.5 106.5q56 45 131 82.5t123 52.5l47 15q-35 122 -35 174q0 115 30 204t108 196.5t235 275.5q-13 2 -80 16t-127 22.5t-117 8.5q-161 0 -307 -59.5t-253.5 -163t-171 -253.5t-63.5 -323zM279 -399 q-2 -13 -2 -27q0 -37 13 -80q16 -58 52.5 -111.5t103 -89.5t150.5 -36q85 0 165.5 27t141.5 70t115 97t91 107t64 100t39.5 77t12.5 38q-12 -11 -33 -29t-86.5 -64.5t-131 -82t-157 -64.5t-172.5 -29t-168.5 21.5t-137 43t-60.5 32.5zM283 -373q7 -4 20 -11t54 -24.5 t81.5 -31t97.5 -24.5t109 -11q82 0 170 26.5t154.5 63.5t125 79t89.5 70t39 39q31 72 67 273q-100 -64 -151 -88.5t-103 -24.5q-67 0 -118 29.5t-111 101.5q-7 -1 -18.5 -4.5t-46.5 -15.5t-69.5 -27t-79.5 -41t-83 -57q-55 -44 -99 -93.5t-66.5 -88.5t-37.5 -71.5t-19 -50.5 zM909 109q1 -5 3 -13.5t11 -29.5t21.5 -37t36 -29.5t53.5 -13.5q42 0 98.5 25.5t91.5 50.5l36 26q-111 27 -183 31h-17q-23 0 -53 -1q-42 -3 -70 -6zM1313 -102l108 139l-39 20zM1382 956h33q128 0 199 7q109 10 227.5 44t201.5 81t83 88q0 33 -37 56t-92 23 q-234 0 -615 -299z" />
<glyph unicode="H" horiz-adv-x="1925" d="M4 438q0 90 25.5 168t61.5 130t89 96t95 67.5t93 42t69 23t36 8.5q0 3 -1.5 24t-1.5 31.5t1 33.5t5 40.5t12.5 41.5t21.5 46q51 95 136 165.5t178 105t184 34.5q84 0 151 -20.5t117.5 -59t91 -79t96.5 -94.5t109 -91q12 3 29.5 5.5t66.5 6.5q14 1 26 1q29 0 44 -7 q57 -17 57 -47q0 -24 -18.5 -39.5t-55.5 -15.5q-25 0 -62 15.5t-61 30.5l-24 15q-107 -43 -154 -88q-17 -17 -32.5 -38t-25 -34t-25 -42t-20 -37.5t-23 -47.5t-21.5 -45q-8 -19 -13.5 -39.5t-11 -47.5t-8.5 -38q278 48 352 68l16 30t14.5 26.5t17 26.5t16 23.5t18 24.5 t17.5 22.5t20 25t19.5 23.5t22.5 26t22 26q81 98 244.5 177t314.5 79q56 0 89.5 -22.5t33.5 -57.5q0 -59 -46 -117.5t-115.5 -104t-159.5 -87t-170.5 -69t-154.5 -46.5q-7 -16 -19 -43.5t-47 -102t-68 -137t-74 -128.5t-72 -97q-179 -179 -285 -215q82 -55 135 -55 q57 0 118 34.5t147 116.5v-24q-5 -6 -14.5 -15.5t-39 -34.5t-59.5 -44.5t-72 -35t-80 -15.5q-30 0 -71.5 15t-67.5 30l-26 16q-62 -37 -117 -37q-28 0 -47 15.5t-19 41.5q0 27 18 42.5t50 15.5q19 0 38.5 -6t31.5 -12.5t40 -22.5q17 14 44.5 37t37.5 31.5t27 24.5t25.5 27.5 t20 29.5t22.5 40q20 41 69.5 160t89.5 218l39 99q-119 -27 -230 -47t-122 -22q-8 -20 -30 -82t-39 -102t-57 -103.5t-93 -120.5q-248 -264 -590 -264q-39 0 -74.5 9.5t-51.5 19.5l-15 10q-6 -13 -14.5 -36t-23 -92t-14.5 -136q0 -115 32.5 -214t86 -167t122.5 -117 t140.5 -71.5t141.5 -22.5q63 0 117.5 14t92 37t67.5 50.5t47.5 55t29 50.5t16.5 37l4 14l21 6q-1 -6 -4 -16t-16 -39.5t-30.5 -56t-49.5 -59t-71 -56t-97.5 -39.5t-126.5 -16q-111 0 -212 47.5t-174 128.5t-116 194t-43 240q0 62 10.5 118.5t42.5 155.5l-17 10 q-17 9 -29.5 17t-35.5 24t-40.5 34.5t-39.5 44t-38 56t-30.5 66.5t-22 81.5t-7.5 94.5zM23 438q0 -70 17 -132t41.5 -101.5t57 -74.5t56.5 -51.5t49 -31.5t26 -16q12 33 48 101t53 79q-3 2 -8.5 5.5t-19 17.5t-23.5 31t-18.5 45.5t-8.5 60.5q0 106 61.5 190t182.5 125l4 -12 q-112 -44 -170 -125t-58 -178q0 -43 16.5 -79t33 -51.5t24.5 -15.5q56 78 130.5 147t189.5 124q39 19 88.5 40t79.5 32l30 12q1 14 1 27q0 38 -5 61q-3 16 -11 37.5t-15 34.5l-7 14q-94 -25 -153 -25q-62 0 -110 23t-72 56.5t-38.5 66.5t-18.5 56l-3 23q-9 -2 -25.5 -6.5 t-63 -22.5t-89 -41t-94.5 -65.5t-89.5 -93.5t-63 -126t-25.5 -161zM291 23q6 -5 17.5 -12t46.5 -19t71 -12q74 0 142 23.5t118.5 59.5t97 89t77 101t59.5 107.5t43.5 97t29.5 80.5t17 48q-8 0 -28 -5l-36 -9l-16 -5q-1 -5 -3.5 -14t-11.5 -36t-20.5 -53.5t-32 -62.5 t-44.5 -67t-58.5 -62.5t-73.5 -53.5t-91.5 -36t-109.5 -14q-24 0 -48 8t-36 16l-12 7q-22 -25 -41 -58.5t-37 -73.5t-20 -44zM406 213q3 -2 17 -9.5t19.5 -9.5t18.5 -5t28 -3q69 0 129 20.5t101 53t74.5 72t53.5 79.5t34 72.5t19 52.5l5 21q-104 -39 -190 -80 q-115 -54 -202.5 -139.5t-106.5 -124.5zM492 1032q2 -32 2 -59q16 1 33 1q35 0 73 -6q56 -8 96 -26q49 -18 90 -54.5t91 -103.5q52 25 112.5 64t91.5 65l9 -14q-97 -78 -201 -133q28 -50 35 -94l6 -80l86 18q61 137 114 211q50 70 128 143.5t108 88.5q44 24 86.5 46t63.5 32 l20 10q-10 10 -29.5 27.5t-81.5 61.5t-127 78t-161 61.5t-189 27.5q-138 0 -258.5 -72t-165.5 -147q-18 -30 -26 -72q-6 -35 -6 -64v-10zM494 954q1 -8 3.5 -22t16 -49.5t35 -62.5t65 -49.5t99.5 -22.5q14 0 49.5 6t64.5 12l29 6q-3 5 -8 13t-22 29.5t-35 40.5t-46 39 t-55 30q-44 16 -93 24q-43 7 -69 6h-7h-27zM1057 16q0 -26 20 -32q10 -3 20 -3q11 0 25 4q24 7 44 17t20 14q-4 2 -10 5.5t-23 12t-32 12t-30.5 5t-24.5 -7.5t-9 -27zM1610 1126q5 -3 13 -7t29.5 -15t41 -17t39 -9.5t31.5 5t12 27.5q0 30 -42 34q-11 1 -22 1q-30 0 -60 -8z M1819 762q141 31 281.5 93t239.5 144.5t99 157.5q0 28 -28.5 45t-75.5 17q-76 0 -164 -51.5t-158.5 -125t-123.5 -150t-70 -130.5z" />
<glyph unicode="I" horiz-adv-x="1615" d="M6 750q0 135 54 256t140.5 203.5t197.5 131t223 48.5q54 0 105.5 -11.5t75.5 -23.5l25 -11l-4 -18q-96 45 -205 45q-104 0 -209.5 -46t-190.5 -125.5t-139 -197.5t-54 -251q0 -24 4 -61t8 -62l4 -25q2 10 6.5 26t24 63.5t45 90.5t74 95.5t107 90t147 63.5t190.5 26 q54 0 107.5 -11.5t91 -27.5t67.5 -32.5t45 -27.5l15 -12q25 75 58 122.5t85 92.5q101 95 255.5 145t340.5 50q118 0 234.5 -23t164.5 -49q6 -4 8.5 -10t3.5 -14t3 -13q-141 -3 -246 -37q-90 -29 -169 -92t-131.5 -138t-94 -154.5t-64 -149t-34 -113t-11.5 -55.5 q0 -6 41.5 11.5t95.5 49.5t82 62q63 69 117 235l18 -8q0 -9 -14.5 -51t-44.5 -102t-62 -95q-47 -51 -119.5 -87t-121.5 -46q-96 -282 -276.5 -408t-458.5 -126q-77 0 -155 18t-159 62t-142.5 109t-100.5 168t-39 230q-19 102 -19 220zM47 492q9 -116 49.5 -208.5t98.5 -151 t132.5 -97t147 -54.5t146.5 -16q79 0 188 69t212.5 189.5t156.5 251.5q-60 20 -97 53q-39 -116 -95.5 -198t-127.5 -129t-148 -68t-169 -22q-63 0 -120.5 14t-100 35.5t-81.5 55t-64 62t-50 67.5t-36.5 61t-26 52.5t-15.5 33.5zM49 545l8 -24t25 -58t44 -82.5t66 -87.5 t89.5 -82.5t115.5 -58t144 -23.5q59 0 112 10.5t94.5 27t79 41.5t65 50t52.5 56.5t40.5 57.5t31 56.5t22.5 49.5t15 41t10 26q-70 94 -92 186q-8 32 -12.5 80t-5.5 81l-1 32q-5 5 -14 12.5t-40 27t-65.5 34.5t-88 27.5t-109.5 12.5q-99 0 -183.5 -24.5t-140.5 -57.5 t-103.5 -88t-72 -93t-46.5 -97t-26.5 -75t-11.5 -51q-2 -5 -2 -7zM975 901q6 -105 18 -164q3 -12 6.5 -23t6.5 -20t8.5 -20t8.5 -17.5t10 -18t9.5 -16t10.5 -16.5t10 -16q-2 14 -5 64t-9 75q-21 97 -74 172zM981 928q2 -4 15.5 -22t20.5 -30.5t18.5 -35t19.5 -49t14 -58.5 q5 -27 9 -71.5t6 -75.5l1 -31q68 -49 101 -55q1 2 17 49t30 81.5t40.5 96t59 113t74 110t96.5 111t117 92.5q84 55 176.5 76.5t280.5 30.5q-7 13 -57 31t-139 33t-181 15q-170 0 -317 -46t-254.5 -140.5t-147.5 -224.5z" />
<glyph unicode="J" horiz-adv-x="1925" d="M18 215q0 91 18.5 170t36.5 117t48.5 86t34.5 55q6 29 11.5 51t20.5 71t32 88t46.5 93t63 95.5t82.5 85.5t104.5 73t129.5 47.5t157 18.5q79 0 152 -19t126.5 -50t77 -47.5t43.5 -33.5l12 10q12 11 29 24.5t43.5 32t59.5 37.5t73.5 39t90 37t103.5 30.5t119.5 21.5 t133.5 8q81 0 160 -11t135.5 -27.5t100.5 -32.5t71 -28t30 -12q31 -4 42.5 -13.5t11.5 -27.5q0 -15 -7.5 -26t-17.5 -11q-11 0 -41 8.5t-57 8.5q-232 0 -393 -140q-73 -76 -99 -114q-49 -72 -164 -326q-18 -40 -208 -465q59 -12 73 -12q39 0 79 17.5t82 55.5t81 110t65 169 l4.5 -18t4.5 -16.5t2 -8.5q-2 -41 -28.5 -97t-67.5 -109.5t-101.5 -90.5t-122.5 -37l-84 9q-63 -138 -155.5 -243t-197 -166t-211.5 -90.5t-214 -29.5q-180 0 -322 81.5t-220.5 225.5t-78.5 326zM43 215q0 -166 79 -305.5t216.5 -220t300.5 -80.5q84 0 166.5 37.5t147 96.5 t121.5 135t95 148t62 140q-28 29 -53 37q-6 -11 -18 -29.5t-54.5 -65t-91.5 -82t-130 -65t-169 -29.5q-97 0 -182 33.5t-146 89t-108 126.5t-73 147t-36 150q-6 41 -6 79q0 29 4 57q-71 -113 -98 -207.5t-27 -191.5zM188 670q28 43 54 74.5t69.5 68t94 59.5t125 38.5 t163.5 15.5q147 0 318 -115q11 26 30 66.5t66 118.5t80 102q-32 40 -145 93.5t-240 53.5q-71 0 -136 -15t-115 -38.5t-95 -59.5t-77 -70.5t-61.5 -80.5t-47 -80t-35 -78.5t-24.5 -67t-16 -53.5zM193 631q-1 -18 -1 -37q0 -130 38 -244q43 -129 117.5 -213.5t170.5 -132 t197 -47.5q82 0 157 25.5t123.5 62t85.5 76t53.5 66.5t16.5 34q-7 6 -18 18t-39.5 49.5t-50.5 77t-40 99t-18 117.5q0 33 4.5 83.5t9.5 84.5l5 34q-51 33 -86 53t-100 42t-124 22q-55 0 -104.5 -6.5t-88.5 -16.5t-75.5 -26.5t-61.5 -31t-50.5 -36.5t-39.5 -36t-31 -37.5 t-22.5 -32.5t-16.5 -28zM1012 582q0 -51 16 -103.5t38 -91.5t44.5 -70.5t38.5 -48.5l16 -16q25 71 25 147q0 111 -38 199t-124 168q-16 -104 -16 -184zM1036 797q3 -3 21.5 -21t31.5 -32.5t34 -41t36 -56t30 -66.5t22.5 -83.5t7.5 -97.5q0 -27 -6.5 -70t-12.5 -73l-6 -29 q31 -30 51 -30q41 86 88.5 191.5t75.5 169t65 140t65 123.5t67.5 100.5t80.5 89.5t94.5 71.5t119.5 64.5q86 40 167 52.5t246 17.5v16q-5 9 -68 32t-172.5 45.5t-207.5 22.5q-63 0 -124.5 -7.5t-113.5 -21t-100 -30t-88 -36.5t-73 -38t-60 -36.5t-44 -31.5t-29 -24l-13 -10 q56 -61 102 -164l-16 -16q-16 38 -48.5 88.5t-52.5 72.5q-34 -26 -86 -110t-84 -172z" />
<glyph unicode="K" horiz-adv-x="2154" d="M-4 418q0 85 17 158t44.5 124t64 93t73 67t74.5 44.5t66 28t50 14.5t23 7q-4 28 -4 56q0 75 28 152q38 105 111 187t185.5 133.5t238.5 51.5q40 0 70 -3t64 -15.5t56 -22.5t64.5 -39.5t70.5 -50t93.5 -70.5t113.5 -86q11 4 29 10t62 16q40 9 69 9h6q72 0 72 -55 q0 -64 -72 -64q-72 2 -176 56q-74 -39 -145.5 -151.5t-108.5 -287.5q139 4 224.5 46.5t162.5 142.5q33 43 102 138.5t119 158.5q76 100 159 148t206 48q32 0 68 -11t56 -21l21 -11v-14q-98 39 -145 39q-212 0 -328 -221q-31 -57 -87.5 -197.5t-90.5 -185.5q-43 -55 -120 -82 t-163 -27q-41 0 -88.5 4.5t-74.5 9.5l-27 5l-10 -37q55 0 108 -11.5t103 -35t81 -68t31 -102.5q0 -42 -4 -134q-2 -65 -2 -111v-35q2 -53 12 -75q42 -94 82.5 -125.5t89.5 -31.5q70 0 133.5 50.5t98.5 120t35 132.5q0 85 -53 134.5t-146 49.5v2q0 7 1 10.5t7 6t19 2.5 q90 0 145 -57.5t55 -147.5q0 -133 -109 -236.5t-247 -103.5q-113 0 -198 66t-91 171l-22 365q-4 61 -52 102t-79 41q-3 -11 -8.5 -31.5t-24.5 -78.5t-41 -112.5t-58 -122.5t-75 -120q-208 -274 -523 -274q-131 0 -243.5 60.5t-180 168t-67.5 236.5zM20 418q0 -90 39 -172.5 t103 -141t149.5 -93t175.5 -34.5q189 0 311 176t236 601q33 123 170 273t264 208q-84 68 -255 132.5t-289 64.5q-73 0 -148.5 -22t-142 -64t-116 -98t-73.5 -131q-16 -50 -16 -103q0 -26 4 -53q47 8 90 8q197 0 334 -156q91 53 180 156l15 -17q-36 -39 -55 -58t-52.5 -46.5 t-73.5 -52.5q23 -40 34 -83.5t12.5 -66.5t1.5 -63q0 -88 -29.5 -161t-75 -119.5t-103 -78.5t-110.5 -45.5t-100 -13.5q-89 0 -144 60.5t-55 160.5q0 95 56 178t155 123l4 -18q-8 -3 -20.5 -9.5t-45.5 -31t-58 -54t-45.5 -80.5t-20.5 -108q0 -93 48.5 -145t125.5 -52 q161 0 277 110.5t116 283.5q0 65 -11.5 114.5t-22.5 66.5l-11 17q-1 0 -11 -4t-27.5 -9t-39 -10.5t-50.5 -9.5t-58 -4q-80 0 -154.5 57.5t-93.5 127.5q-1 0 -15 -3.5l-32 -8t-45 -15t-54 -23.5t-57 -35t-57 -48.5t-52 -65t-43 -82.5t-28.5 -103t-10.5 -126zM436 934 q23 -72 91.5 -119t131.5 -47q98 0 175 33q-70 80 -182 120q-67 24 -131 24q-43 0 -85 -11zM1526 1229q80 -35 135 -37h7q46 0 46 35q0 28 -44 28h-9q-24 0 -58 -6.5t-55 -12.5z" />
<glyph unicode="L" horiz-adv-x="2002" d="M8 131q0 67 73 114.5t171 47.5q66 0 141.5 -25t196.5 -88q71 119 106 199q22 49 46.5 122.5t38.5 122.5l14 48q-123 -49 -203 -49q-179 0 -298.5 133.5t-119.5 320.5q0 151 76.5 274t211 193t300.5 70q73 0 103.5 -6t74.5 -31q-147 16 -178 16q-122 0 -228.5 -41 t-180 -110.5t-116 -164.5t-42.5 -200q0 -84 29.5 -162.5t80.5 -139t126 -96.5t161 -36q44 0 108 19.5t103 42.5q16 66 30.5 120.5t30.5 101.5t25.5 78t27 66t24 50.5t27 46t24.5 37t29.5 39.5t29.5 38q74 98 160 153.5t147 55.5q162 0 162 -143q0 -77 -30.5 -158 t-90.5 -161.5t-161 -155t-230 -128.5q-35 -205 -85 -312.5t-198 -301.5q168 -59 270.5 -77.5t239.5 -18.5q286 0 441 110t155 299q0 80 -37 138t-121 120l13 23q178 -104 178 -281q0 -106 -56 -207t-149 -176t-220.5 -121t-262.5 -46q-136 0 -250 35.5t-310 136.5 q-112 -69 -177 -93t-142 -24q-120 0 -204.5 48t-84.5 134zM35 131q0 -61 64 -106t155 -45q69 0 156 39t145 94q-33 22 -85 51t-132.5 62.5t-128.5 33.5q-64 0 -119 -41t-55 -88zM1006 780q109 41 222.5 140t189 217.5t75.5 210.5q0 61 -29.5 91.5t-105.5 30.5 q-61 0 -125 -59t-113.5 -154t-81.5 -222.5t-32 -254.5z" />
<glyph unicode="M" horiz-adv-x="2295" d="M-8 440q0 109 39.5 208t106 170t155.5 113t184 42q166 0 283 -104t117 -253q0 -101 -55 -191.5t-138.5 -143t-169.5 -52.5q-117 0 -181.5 77.5t-64.5 201.5q0 63 41 178l25 -6q-43 -108 -43 -172q0 -115 61 -185.5t162 -70.5q126 0 233 110.5t107 253.5q0 142 -111 238 t-266 96q-123 0 -230 -70t-170 -187.5t-63 -252.5q0 -57 21 -119.5t67 -125t109.5 -112.5t156.5 -81t201 -31q296 0 529 430l1 1v1l1 1v1l1 1v1l1 1v1l1 1l1 1v1l1 1v1l1 1v1l1 1v1l1 1l1 1v1l1 1v1l1 1v1l1 1v1l1 1l1 1v1l1 1v1l1 1v1l1 1v1l1 1l1 1v1l1 2q209 378 294 507 q134 204 255 279l6 4q-313 106 -383 106q-90 0 -163 -17t-117 -41.5t-76.5 -60.5t-47 -64.5t-23 -65t-9 -49.5t-0.5 -29q0 -98 57.5 -168t141.5 -70q61 0 104 43h12q-38 -54 -68.5 -74t-74.5 -20q-101 0 -169 74t-68 184q0 46 9 89.5t41 97.5t84 93.5t146.5 67t220.5 27.5 q30 0 130.5 -28t185.5 -56l86 -27q46 25 80 25h6q36 -2 37 -31q0 -25 -29.5 -33.5t-58.5 8.5q-78 -109 -109 -331q-4 -35 -4 -85q0 -32 2 -71q2 -36 1 -66q0 -54 -5 -90q-6 -48 -19.5 -95.5t-35 -107.5t-25.5 -73q125 181 242.5 322.5t225.5 242.5t203 171t201 130 q160 90 217 114q146 61 367 75l-2 -23q-177 -13 -291 -53.5t-272 -132.5q-88 -51 -179 -197.5t-229 -427.5q-56 -106 -100.5 -226t-44.5 -198q0 -36 17.5 -67t47.5 -31t64.5 29t59 67.5t40 66t17.5 33.5q5 2 11 2t11 3q-59 -127 -112 -179.5t-119 -52.5q-75 0 -120.5 58 t-45.5 151q0 143 116 343.5t318 455.5q-200 -155 -348 -338q-104 -128 -278.5 -382t-221.5 -304q-10 17 -10 26q12 34 30 81.5t23 64t9.5 50.5t4.5 83q0 237 11 357.5t36 201t89 215.5q-62 -64 -130.5 -181t-117 -224t-105 -232t-86.5 -180q-59 -107 -207.5 -182.5 t-306.5 -75.5q-114 0 -220.5 40t-184.5 106t-125 157t-47 188z" />
<glyph unicode="N" horiz-adv-x="2131" d="M0 342q0 182 92 337t245.5 244t330.5 89q31 0 65.5 -3t52.5 -5l19 -3q9 141 105 284t227 202q75 34 160 44.5t245 10.5q150 0 435 -87.5t374 -129.5q28 31 51 53t61.5 51.5t83.5 45.5t93 16q60 0 97.5 -24.5t37.5 -65.5q0 -56 -61.5 -95.5t-159.5 -39.5q-45 0 -93 8.5 t-73 17.5l-25 8q-41 -65 -84 -147q-34 -65 -114 -226t-155 -295.5t-193 -324.5q-15 -24 -37.5 -60.5t-36 -58t-31.5 -51t-30 -47t-26 -38.5t-23.5 -33t-19 -23t-16.5 -16t-12 -5q-10 0 -18 7t-8 16q0 1 19.5 48t39.5 112t20 112q0 70 -16 220q-14 127 -14 216v31q1 88 6 133 t24 174l-325 -645q-157 -299 -332 -440t-399 -141q-262 0 -422 144.5t-160 379.5zM16 342q0 -227 157.5 -367.5t408.5 -140.5q210 0 384.5 139t323.5 426q57 109 132.5 260.5t128 258.5t63.5 126q40 71 117 157.5t133 136.5l57 51q-164 55 -270 55q-134 0 -264 -45.5 t-208.5 -113t-78.5 -132.5q0 -24 16.5 -46.5t32.5 -32.5l16 -11l-4 -19q-3 1 -8.5 3.5t-20 12t-25 21t-19.5 31t-9 41.5q0 73 80.5 144.5t214.5 118t277 46.5q74 0 137.5 -13t177.5 -50q-141 -117 -188 -190t-47 -179q0 -19 40.5 -264.5t40.5 -255.5q0 -85 -69 -283 q69 110 124 200.5t90 151t78 142.5t65 124.5t75.5 150.5t85.5 171q17 35 37 70t32 53l11 17q-23 9 -63 23.5t-151.5 52t-208 66t-205 52t-171.5 23.5q-107 0 -190.5 -23.5t-190.5 -75.5q-77 -37 -137 -91.5t-95.5 -116t-55.5 -116.5t-31 -112q121 -52 174 -120.5t94 -211.5 q131 14 207 85t76 204q0 27 -8.5 64t-17.5 60l-9 24l18 4q37 -99 37 -152q0 -275 -299 -315q0 -127 -22 -207t-86 -174q-80 -114 -206 -182t-247 -68q-135 0 -225 93t-90 237q0 119 57.5 226.5t153 172t200.5 64.5q114 0 196.5 -79.5t82.5 -191.5q0 -67 -45 -155 q-17 -5 -23 -5q47 99 47 160q0 100 -77 176t-181 76q-81 0 -155.5 -41.5t-125 -106t-80.5 -143t-30 -153.5q0 -135 84.5 -224.5t210.5 -89.5q110 0 237.5 69.5t198.5 172.5q47 68 72.5 143t30 121.5t4.5 110.5q-124 19 -209 121q-82 98 -82 218v9q-88 14 -137 14 q-175 0 -325 -86.5t-238.5 -237t-88.5 -329.5zM842 969v-14q0 -59 22 -111q26 -58 66.5 -95.5t82.5 -61t79 -30.5q-16 54 -27 85.5t-30.5 69t-43.5 62t-61 49.5t-88 46zM2376 1319q1 0 20.5 -6t38 -11t52 -9.5t67.5 -4.5q83 0 143 31t60 82q0 30 -38.5 51t-78.5 21 q-78 0 -150 -49.5t-114 -104.5z" />
<glyph unicode="O" horiz-adv-x="1228" d="M0 324q0 177 117 393.5t307 396.5q204 175 350 193h86q-142 -69 -209.5 -126t-161.5 -184q-337 -477 -337 -829q0 -91 49 -148t123 -57q117 0 251 125.5t259 351.5q221 398 221 645q0 86 -27.5 126t-87.5 40q-67 0 -146 -53.5t-144.5 -134t-109.5 -184t-44 -195.5 q0 -71 36 -112.5t93 -41.5q56 0 108 29.5t89.5 75t66 98t43 100t14.5 80.5q0 50 -24 85.5t-52 35.5q-54 0 -118 -73l-15 14q80 80 133 80q42 0 70.5 -43t28.5 -99q0 -60 -26.5 -130t-71 -131.5t-110.5 -102.5t-136 -41q-68 0 -110 47.5t-42 128.5q0 118 71 256t182 234 t214 96q90 0 158.5 -89.5t68.5 -205.5q0 -88 -50 -246.5t-111 -265.5q-133 -232 -320.5 -372t-361.5 -140q-140 0 -232 108.5t-92 264.5z" />
<glyph unicode="P" horiz-adv-x="2142" d="M0 512q0 118 38 231t106.5 205.5t159 163t201 109.5t226.5 39q54 0 112 -13t89 -26l31 -13q7 8 19.5 21t59 46t100.5 58.5t143.5 46.5t187.5 21q128 0 241.5 -27.5t163.5 -54.5l49 -27q19 7 51.5 18t119 29.5t155.5 18.5q92 0 162.5 -13.5t162.5 -54.5l-4 -12 q-154 63 -321 63q-64 0 -136 -17.5t-111 -34.5l-40 -17l20 -18q21 -17 49.5 -48.5t57.5 -71t49.5 -93.5t20.5 -107q0 -109 -66.5 -200.5t-181.5 -145t-252 -53.5q-86 0 -145 6q-39 -131 -115 -237t-167 -174t-198 -114.5t-206 -66t-193 -19.5q-290 0 -464.5 159.5 t-174.5 422.5zM16 512q0 -244 155 -395.5t404 -151.5q87 0 171.5 23.5t152.5 63t116.5 76.5t88.5 77q36 37 109 180.5t138 285t74 154.5q26 40 40.5 62.5t61.5 83t91 104.5t114.5 100t145.5 97q-5 5 -15 12.5t-46 26.5t-79 34t-114.5 27t-150.5 12q-88 0 -168.5 -17 t-130 -37.5t-96 -51.5t-61.5 -44.5t-32 -31.5l-4 -4q34 -17 53.5 -29t55 -38t67.5 -64t60 -88q35 -60 49 -152q13 -81 12 -144v-17q1 1 13.5 15t20.5 23t19.5 26.5t18.5 33.5l6 -31q-41 -67 -78 -96q-45 -137 -102 -224q-168 -257 -471 -257q-102 0 -193.5 34t-160.5 94.5 t-109.5 151t-40.5 197.5q0 70 37 147l20 6q-4 -11 -12 -34.5t-10 -30t-6.5 -21.5t-5.5 -22.5t-2 -19.5t-1 -25q0 -135 69 -241.5t178.5 -162t236.5 -55.5q88 0 165.5 25t130 61t97.5 87t70.5 93t46 89t26 65t8.5 31q-54 -21 -102 -21q-128 0 -214.5 92t-86.5 226 q0 56 26 123t52 106l26 39q-12 6 -33.5 15t-79.5 23.5t-106 14.5q-135 0 -265.5 -59.5t-229 -157.5t-159.5 -234t-61 -280zM868 922q0 -126 82 -212.5t197 -86.5q52 0 106 28q1 12 1 29q0 46 -10 124q-14 106 -46 163q-87 150 -229 213q-57 -90 -79 -145t-22 -113zM1530 586 q41 -2 78 -2q106 0 200 56.5t150.5 152.5t56.5 204q0 53 -9.5 97.5t-23.5 70.5t-28 45t-24 26l-9 7q-7 -4 -19 -11.5t-46 -34t-64 -57t-64.5 -80t-56.5 -102.5q-141 -366 -141 -372z" />
<glyph unicode="Q" horiz-adv-x="1359" d="M8 78q0 65 71 110t173 45q57 0 108 -11t94 -26t64 -18q30 27 80.5 73.5t172.5 177t206 245.5q46 46 115 213t69 280q0 91 -63.5 147t-161.5 56q-124 0 -217 -67t-189 -222q-45 -73 -62 -137q-10 -42 -10 -75q0 -17 3 -32q9 -42 30.5 -72.5t47 -44t47.5 -13.5 q58 0 121.5 55t106 142t42.5 171q0 38 -20 68.5t-62 30.5q-79 0 -146 -87.5t-87 -226.5q-7 8 -11.5 17t-5.5 13v5q1 6 3.5 17t12.5 42t22 59.5t33 63.5t45 60t59.5 42t74.5 17q49 0 74.5 -37t25.5 -84q0 -88 -42 -179t-110 -150.5t-136 -59.5q-86 0 -135.5 61t-49.5 156 q0 81 49.5 169t125.5 156.5t173 113t187 44.5q93 0 179.5 -50t141 -135.5t54.5 -182.5q0 -98 -46.5 -205t-116.5 -198.5t-168 -186.5t-186 -164.5t-184 -136.5q23 -9 61.5 -22t126.5 -34.5t142 -21.5q61 0 105.5 41t44.5 100q0 26 -4 44.5t-16 31.5t-17 18.5t-23.5 15 t-19.5 9.5l4 27q55 -27 76.5 -60t21.5 -86q0 -101 -76 -162.5t-205 -64.5h-12q-47 0 -93 7q-51 7 -94 21t-71.5 26t-59.5 27.5t-34 16.5q-17 -11 -47 -27t-112 -42.5t-152 -26.5q-55 0 -101.5 31t-46.5 82zM35 78q0 -41 39.5 -69.5t81.5 -28.5q40 0 82.5 11.5t74 28t58 33 t39.5 27.5l14 12q-185 72 -287 72q-38 0 -70 -25t-32 -61z" />
<glyph unicode="R" horiz-adv-x="2332" d="M-2 537q0 116 38.5 228t107.5 204.5t158.5 163t198 110t220.5 39.5q49 0 104.5 -9t86.5 -19l30 -9q6 8 18.5 22t59.5 50t104.5 63t156 49.5t210.5 22.5q72 0 139.5 -10t112.5 -24.5t79.5 -29t51.5 -24.5l16 -10q1 0 17.5 8t47 19t71 22t99.5 19t122 8q82 0 137.5 -12.5 t142.5 -49.5l-4 -12q-123 55 -276 55q-84 0 -163 -19t-116 -38l-37 -19q0 -2 22.5 -17t54.5 -42t63.5 -62.5t54 -88t22.5 -109.5q0 -161 -130 -267.5t-365 -138.5q90 -90 113.5 -135t23.5 -131v-188q0 -80 49 -129.5t123 -49.5q79 0 135.5 55.5t56.5 129.5q0 76 -73 203 l16 12q9 -12 22.5 -33t36.5 -78t23 -104q0 -93 -70.5 -153t-189.5 -60q-127 0 -219 75t-92 181q0 57 8 147.5t8 124.5q0 79 -90 139q-94 -206 -125 -280q-45 -108 -170.5 -197.5t-290.5 -139.5t-330 -50q-176 0 -316.5 71t-222 206t-81.5 311zM16 537q0 -119 39 -220.5 t113 -177.5t189.5 -119t260.5 -43q190 0 338.5 96t237.5 281q19 40 98.5 227.5t124.5 288.5q28 63 68 123t80.5 105.5t83 85t79.5 66.5t66.5 47t46.5 29l17 9q-5 4 -14.5 11t-43 24.5t-72.5 30.5t-103 24t-134 11q-78 0 -149 -11t-123 -28.5t-96.5 -39t-73.5 -42.5 t-49.5 -38.5t-29.5 -28.5l-9 -11q100 -61 139 -95q68 -61 114 -149q38 -74 52 -148q10 -54 10 -88q0 -13 -2 -23l-6 -38q25 20 49.5 53.5t28.5 61.5l10 -29q-6 -27 -33.5 -61.5t-58.5 -52.5q-47 -240 -209.5 -390.5t-378.5 -150.5q-69 0 -127 10.5t-114 37t-102 68.5 t-88 106.5t-75 150.5l-1 -8q6 -9 30 -9q71 -165 182.5 -251.5t294.5 -86.5q207 0 359 142t204 372q-10 -4 -28.5 -10.5t-59.5 -14t-80.5 -7.5t-84 16.5t-78 50t-55.5 101t-22 161.5q0 85 32.5 160.5t62.5 110.5q-109 41 -205 41q-179 0 -342.5 -103t-263 -272.5 t-99.5 -355.5zM854 956q0 -88 21 -151t50.5 -94.5t72.5 -45.5q44 -15 78 -15h4q32 0 72 9q42 9 56.5 14t30.5 11q2 5 4 15t5 42q2 17 2 35q0 15 -2 30q-2 33 -15.5 82t-38.5 97q-40 75 -99.5 130t-150.5 99q-29 -45 -45.5 -75t-30.5 -79.5t-14 -103.5zM1542 649q24 -3 49 -3 q61 0 119 19q84 27 147 81t102.5 133.5t39.5 167.5q0 59 -11 108t-27.5 77.5t-32.5 49t-27 28.5l-11 7q-6 -3 -15.5 -9t-39.5 -32.5t-59 -60.5t-67.5 -97t-70.5 -139q-53 -126 -96 -330z" />
<glyph unicode="S" horiz-adv-x="1454" d="M4 352q0 78 14 149.5t34 123t51.5 100t57.5 78.5t61.5 60t53.5 42t43 28q8 5 11 7q-1 109 57 207.5t151 164.5t206.5 105t222.5 39q62 0 114 -11t82.5 -27t52 -32t29.5 -27l8 -11q4 4 12.5 9.5t34.5 12t52 2.5q35 -6 54 -37t19 -73q0 -62 -62.5 -154t-122 -153.5 t-64.5 -61.5q49 -303 49 -420q0 -133 -70 -247.5t-189 -181.5t-257 -67q-131 0 -237 65t-163 168t-57 220q0 188 137 354l4 4q-27 38 -37 61t-22 66q-29 -15 -59.5 -37t-78 -70.5t-82.5 -107.5t-61 -151t-26 -197q0 -175 86.5 -326t236.5 -241t326 -90q71 0 143 18.5 t124.5 44.5t95 52t63.5 44l22 19v-16q-7 -8 -20 -20t-57 -44t-92.5 -56.5t-124.5 -44.5t-154 -20q-139 0 -265 57.5t-214.5 151.5t-140.5 217.5t-52 253.5zM272 430q1 -34 12 -79t37.5 -101.5t65 -102.5t102 -78t140.5 -32t146.5 35t121 93.5t93.5 132.5t68 155t40 158.5 t14 144.5v98q-80 -59 -164 -96q5 -8 11.5 -22.5t18 -60t11.5 -91.5q0 -85 -88.5 -165.5t-191.5 -80.5q-65 0 -110.5 41.5t-45.5 101.5q0 59 37.5 100.5t91.5 41.5q27 0 46 -16t46 -60q-115 -9 -115 -74q0 -37 26 -61.5t67 -24.5q82 0 145.5 70t63.5 159q0 29 -8.5 61.5 t-16.5 50.5l-8 17q-14 -7 -39 -17.5t-91.5 -28t-121.5 -17.5q-59 0 -108 9t-77.5 22t-49 26t-27.5 22l-8 9q-6 -7 -15.5 -18.5t-33 -49t-41.5 -75.5q-18 -39 -32 -93q-12 -48 -12 -91v-13zM352 946q5 4 15 11t44.5 25.5t73.5 34t103 32.5t133 26q211 27 405 27 q0 67 34.5 141t76.5 96q-3 4 -9 11t-29.5 24.5t-52 30.5t-76.5 24t-103 11t-120 -14.5t-133.5 -41.5t-132 -70t-114 -95.5t-82 -123.5t-33.5 -149zM354 926q18 -77 58 -121q4 4 12.5 10.5t36 23.5t57 30t74.5 23.5t90 10.5q83 0 134.5 -26t119.5 -97q34 15 78.5 41t71.5 45 l28 19l10 196q-252 -6 -393 -24q-90 -12 -164.5 -33.5t-110 -39.5t-66.5 -37t-36 -21zM426 786q2 -3 7 -9t25 -20.5t45.5 -25.5t71.5 -20t101 -9q56 0 114.5 16.5t89.5 33.5l31 16q-3 5 -9.5 13t-28 28t-46 35.5t-64 28t-81.5 12.5q-48 0 -91.5 -10t-72.5 -24.5t-50.5 -29.5 t-31.5 -25zM1169 1081l5 -153q196 180 196 350q0 32 -14.5 51t-38.5 19q-17 0 -49 -21q21 -39 21 -78q0 -15 -3 -29q-11 -52 -45 -91.5t-72 -47.5zM1169 1108q28 3 55.5 37.5t35.5 79.5q3 13 3 27q0 32 -14 63q-1 -2 -11 -14t-12 -15t-10.5 -14.5t-11 -16.5t-9 -17.5t-9 -21 t-7 -22t-6 -25.5t-3 -28t-1.5 -33z" />
<glyph unicode="T" horiz-adv-x="2027" d="M4 881q4 62 23 133t55.5 148t86 150.5t119 139.5t150.5 115.5t185 78.5t217 29q101 0 194.5 -23.5t154.5 -57.5t107 -67.5t67 -56.5l21 -24q125 58 202 77t173 19q110 0 222 -34t204.5 -82.5t181 -97t184.5 -82.5t183 -34q57 0 166 23q-14 -16 -27 -29q-10 -2 -84.5 -11 t-87.5 -9q-70 0 -194.5 39.5t-242 86.5t-260.5 86.5t-245 39.5q-189 0 -342 -37q20 -25 52 -75t72.5 -127t68.5 -172.5t28 -178.5q0 -39 -6.5 -75.5t-19 -66.5t-25.5 -54.5t-30 -46t-28 -34t-25 -26.5l-15 -15q-70 -280 -293 -473l-16 13q7 7 42 45.5t45.5 51.5t40 49 t43.5 60t35 62t36 79t28 87q-38 -12 -92 -12q-145 0 -242.5 116t-97.5 289q0 67 26 140.5t52 114.5l26 40h-1l-1 1h-1h-1l-1 1h-1h-1h-1l-1 1h-1h-1l-1 1h-1h-1l-1 1h-1h-2q-135 42 -179 44h-10q-193 0 -353.5 -95.5t-251.5 -258.5t-91 -357q0 -139 56 -268t150 -223 t222.5 -150.5t267.5 -56.5q214 0 390.5 129.5t255.5 347.5q38 105 73 213t54.5 174t42 134t41.5 110t47.5 83t66 72t90.5 60q116 65 357 86l-4 -22q-187 -23 -285.5 -89t-126.5 -190q-10 -45 -30.5 -143t-36 -161t-38.5 -138q-52 -174 -144 -306.5t-210.5 -214t-255 -122.5 t-287.5 -41q-146 0 -278 56t-227.5 151.5t-152 228.5t-56.5 280q0 148 52 282.5t143.5 234.5t226.5 159.5t292 59.5q66 0 220 -49q14 20 37.5 50t81.5 89.5t98 77.5q-7 9 -20.5 24t-61.5 53t-103 67t-143.5 53t-183.5 24q-118 0 -224 -33t-185 -87t-146.5 -125t-113 -144.5 t-79 -148.5t-49.5 -134.5t-20 -103.5zM1044 903q0 -164 92 -275.5t222 -111.5q46 0 100 23q8 66 8 125.5t-8 111.5q-15 104 -58.5 179.5t-102 128t-142.5 96.5q-32 -36 -71.5 -124.5t-39.5 -152.5zM1167 1202q127 -66 199.5 -143.5t105.5 -196.5q24 -87 25 -203 q0 -42 -4 -88q15 14 30.5 33t37.5 54t35.5 85t13.5 105q0 83 -32.5 183t-75 176t-74.5 125t-42 59l-18 -10q-17 -10 -34.5 -22.5t-43.5 -33t-58 -52.5t-65 -71z" />
<glyph unicode="U" horiz-adv-x="1771" d="M10 707q0 76 30 157.5t93.5 160t150.5 140.5t211.5 100t266.5 38q136 0 241.5 -51t168.5 -158t63 -256q0 -23 -3 -44t-5.5 -36.5t-12.5 -37t-14 -31t-20.5 -34t-21.5 -31t-27.5 -37t-28.5 -38.5q-17 -22 -70.5 -92t-79.5 -106.5t-62.5 -93t-52.5 -100t-16 -79.5 q0 -41 20 -68.5t56 -27.5q67 0 145.5 68.5t141.5 158.5q24 35 66.5 105.5t79 131.5t101.5 148t137 165t182 170t239 175q-11 8 -30 21.5t-74.5 48t-107 60.5t-117 47.5t-114.5 21.5h-110v12h94q168 0 268.5 -35.5t247.5 -151.5q224 85 291 103q112 29 280 29q243 0 393 -114 t150 -280q0 -93 -93 -164t-216 -71q-91 0 -185 23.5t-171.5 61t-150 82.5t-127 90t-96 82.5t-62.5 61.5l-21 23q-13 -10 -35 -27.5t-86.5 -75t-123.5 -118.5t-131.5 -152t-125.5 -180q-226 -382 -227 -470q-1 -36 30 -36q34 0 70.5 14.5t63.5 35.5t49 42.5t34 35.5l11 15 v-37q-4 -6 -11 -15.5t-32.5 -34t-53 -43.5t-71.5 -34.5t-90 -15.5q-121 0 -121 203q-167 -203 -291 -203q-65 0 -116.5 66t-51.5 153q0 77 42 169t101.5 174t119 160.5t101.5 151.5t42 123q0 155 -102 241.5t-271 86.5q-135 0 -255.5 -37t-206 -97t-148 -136t-93 -155 t-30.5 -152q0 -128 95.5 -222t223.5 -94q82 0 174 21t160 59l6 -12q-134 -86 -340 -86q-141 0 -239.5 98t-98.5 236zM2083 1094q18 -18 49 -48t123 -106.5t180.5 -134.5t204.5 -106t211 -48q116 0 202.5 68.5t86.5 146.5q0 160 -147.5 266.5t-375.5 106.5 q-115 0 -248.5 -36.5t-209.5 -72.5z" />
<glyph unicode="V" horiz-adv-x="1222" d="M4 1018q0 155 126.5 255.5t320.5 100.5q83 0 190.5 -29t177.5 -56q65 -25 73 -25h1q58 53 111 53q11 0 21.5 -9t10.5 -20q0 -32 -44 -46q-25 -8 -51 -7q-20 0 -40 4q-86 -63 -86 -207q0 -64 24.5 -236.5t24.5 -222.5q0 -89 -51.5 -210.5t-169.5 -305.5q71 72 136 146 t130 160.5t106 141.5t107 157t86.5 134t87.5 140q4 6 13 21q23 38 38.5 61.5t51 70t68.5 77.5t86 69.5t108.5 62t131 40t157.5 16.5q204 0 341.5 -126t137.5 -321q0 -109 -41.5 -212.5t-109.5 -179t-159 -121.5t-186 -46q-156 0 -263 107t-107 260q0 80 28 147t67.5 105.5 t79 64t67.5 35t28 6.5v-14q-10 -3 -27 -9t-60 -32t-76 -61t-60 -99.5t-27 -142.5q0 -148 102 -246t248 -98q90 0 178 46.5t153 120.5t105.5 172.5t40.5 196.5q0 181 -126.5 286t-331.5 105q-92 0 -182.5 -28t-159 -70t-129 -95t-97.5 -97.5t-61 -83.5q-3 -4 -33.5 -55 t-48 -79.5t-61 -95t-80.5 -118t-97 -131.5t-119.5 -152.5t-139 -163t-164.5 -180.5q-23 0 -37 6q16 38 42.5 98t32.5 75t17 50t13.5 60t4.5 67q1 32 1.5 210.5t11.5 242.5q29 184 58 269q53 158 150 218q-29 13 -77 31.5t-161 50t-185 31.5q-166 0 -273.5 -100t-107.5 -254 q0 -47 19 -91.5t41 -70.5t44.5 -50t26.5 -32q-87 22 -142 93t-55 165zM918 1255q15 -5 30 -5q16 0 32 6q30 10 30 26q0 12 -21 12q-14 0 -35 -12t-36 -27z" />
<glyph unicode="W" horiz-adv-x="1837" d="M6 1026q0 164 130 262t343 98q53 0 116 -12.5t115.5 -30.5t97 -35.5t71.5 -29.5t28 -12q49 49 88 49q19 0 34 -7t15 -20q0 -26 -45 -40q-30 -9 -54 -9q-13 0 -25 2q-12 -12 -29 -30.5t-45.5 -62t-28.5 -69.5q0 -112 24.5 -265t24.5 -239q0 -146 -239 -528q2 2 26 24.5 t31.5 29.5t32.5 31.5t37 37t37 37.5t41 42t39 42.5t41 47t38.5 46.5t38.5 49q188 243 400 658q16 30 50 68.5t59 61.5l26 23q-47 -82 -63.5 -132t-16.5 -114q0 -74 22.5 -213t22.5 -211q0 -98 -41 -195t-166 -306q181 201 285 336q196 246 381 567q50 85 146.5 169t229 144 t254.5 60q214 0 354 -129.5t140 -329.5q0 -142 -68 -269.5t-179 -203.5t-232 -76q-176 0 -292 111t-116 270q0 54 15.5 103t41 84.5t56 65t60.5 48.5t55.5 32.5t40.5 19.5l16 5l6 -18q-6 -2 -15.5 -6t-37 -18.5t-52.5 -32t-56 -46.5t-53 -62t-37 -79t-15 -96 q0 -69 24.5 -132.5t71 -113.5t121 -80t166.5 -30q113 0 218.5 76t169.5 197.5t64 250.5q0 182 -119 295.5t-305 113.5q-81 0 -153 -13.5t-130.5 -36t-115 -61.5t-100.5 -80t-94.5 -102.5t-89.5 -117t-91 -135.5q-65 -98 -203 -281.5t-281 -351.5t-177 -168q-19 0 -19 12 q0 25 66 158q10 23 18.5 48.5t14 59.5t9.5 61t6.5 73t4 75t2 88.5t0.5 91v105v109.5q-13 -18 -63.5 -98.5t-113.5 -174t-118 -164.5q-122 -150 -264.5 -298t-171.5 -148q-7 0 -14.5 7.5t-7.5 14.5q92 168 106 254q7 41 18 222.5t11 334.5q0 53 13 106.5t28.5 91.5t45.5 85 t46.5 69.5t51 64.5t40.5 50q-26 14 -69 34.5t-153 54.5t-194 34q-195 0 -303 -105t-108 -261q0 -68 26.5 -113t102.5 -102q-2 2 -1 -2q2 -11 1 -11q-8 3 -21 8t-45.5 25.5t-58 46t-46 70t-20.5 96.5zM934 1260q13 -2 25 -1q15 0 31 2q28 5 28 23q0 15 -15 15q-3 0 -8 -1 q-37 -4 -61 -38z" />
<glyph unicode="X" horiz-adv-x="1503" d="M6 203q0 157 114 304.5t306 211.5q58 189 198 324t332 217q-52 45 -104 45q-103 0 -181 -50.5t-194 -173.5l-10 13q71 80 122 124.5t118.5 73.5t146.5 29q34 0 70 -16.5t55 -34.5q23 3 41 3q25 0 43 -5q89 -25 135.5 -118t69.5 -267q13 13 35 36t87.5 85t126.5 113.5 t137.5 105t135.5 77.5q29 12 82 27q44 12 53 12h2l19 -12q-59 -12 -88 -24q-53 -21 -95 -47t-75 -53t-82.5 -83t-89 -104.5t-124.5 -153t-161 -194.5q-1 -17 -43.5 -227t-42.5 -300q0 -77 25 -127.5t81 -50.5q48 0 115 31q-2 -3 2.5 -9.5t3.5 -9.5q-62 -30 -121 -30 q-50 0 -89 12t-65 31t-45 49t-29 59.5t-17.5 70t-10.5 72.5t-7.5 75.5t-8.5 70.5q-267 -264 -411 -357.5t-281 -93.5q-119 0 -200 78t-81 191zM25 203q0 -101 77.5 -170.5t184.5 -69.5q43 0 87.5 15t84 37.5t88.5 65.5t87 80.5t94 102.5t94 111.5t103.5 126.5t108.5 131 q39 387 39 416q0 109 -82 194q17 -56 17 -104q0 -145 -81.5 -294t-217.5 -239q10 -25 10 -54q1 -42 -19 -92q-32 -86 -95 -159.5t-146.5 -126.5t-153.5 -53q-48 0 -87.5 38.5t-39.5 88.5q0 38 30 99.5t85 113.5l12 -8q-59 -67 -83.5 -112t-24.5 -93q0 -46 32 -77.5t76 -31.5 q56 0 130.5 47t136.5 114.5t98 149.5q25 57 25 104q0 21 -5 40q-79 -55 -153 -55q-57 0 -91 45q-25 33 -26 77q0 17 4 35q-94 -32 -171.5 -89t-126 -124.5t-75 -139.5t-26.5 -140zM442 702q-3 -17 -3 -32q1 -38 17 -68q24 -44 81 -43q17 0 33.5 3t28 6.5t26 10.5t20.5 11 t19.5 12.5t15.5 9.5q-51 93 -186 93q-25 0 -52 -3zM446 723q29 3 54 3q140 0 198 -101q77 58 136 131t91.5 142.5t48 129.5t15.5 109q0 50 -20 104q-77 -29 -152.5 -75.5t-148.5 -110t-132 -150t-90 -182.5z" />
<glyph unicode="Y" horiz-adv-x="2148" d="M4 1251q0 275 479 275q90 0 160.5 -19.5t112.5 -47t75 -71.5t47.5 -77.5t28.5 -79.5q14 5 59 23.5t60.5 23t53 14t76 12.5t89.5 3q174 0 297 -124t123 -296q0 -84 -33.5 -172.5t-76.5 -153t-98.5 -152.5t-84.5 -153q-2 -5 -4 -14.5t-7 -36.5t-7.5 -51.5t-0.5 -54.5 t10 -51.5t27 -36.5t48 -15q53 0 105 46.5t99 128t87 165.5t88.5 186t85.5 162q67 108 132.5 196.5t153.5 180t178.5 153.5t203 101t229.5 39q87 0 155.5 -15t108 -39.5t67.5 -54t38.5 -58.5t15 -53.5t3.5 -39.5l-1 -15q-22 13 -23 13q-10 70 -42.5 120t-80.5 76t-98 37.5 t-107 11.5q-123 0 -259.5 -78t-266.5 -216.5t-250.5 -336t-212.5 -427.5q-49 -127 -97.5 -242t-78.5 -183t-35 -81q-18 -46 -43 -90q10 -12 34 -36t81 -74t122 -99t158 -104.5t188 -96.5t213 -68.5t232 -27.5q174 0 323.5 79.5t240 224t90.5 322.5q0 102 -40.5 196.5 t-106.5 161.5t-152.5 106.5t-175.5 39.5q-152 0 -245 -81.5t-93 -205.5q0 -51 15.5 -94t40 -70t54.5 -48t60 -31.5t54.5 -17t39.5 -7.5l16 -2q0 -22 -20 -22q-122 0 -205.5 82t-83.5 210q0 140 104.5 230t262.5 90q100 0 192.5 -43t159.5 -115t107 -171t40 -208 q0 -180 -90.5 -329.5t-246 -234.5t-341.5 -85q-240 0 -504 126t-534 382q-119 -238 -314 -378t-456 -140q-141 0 -262.5 38.5t-204 103.5t-129.5 151t-47 180q0 96 47.5 184t130.5 154t204.5 105.5t260.5 39.5q95 0 187 -23t159 -54.5t138.5 -81t111.5 -84.5t91.5 -83 t66.5 -61q30 42 43 78q32 66 98 414q-119 -143 -176 -187.5t-115 -44.5q-83 0 -132.5 70.5t-49.5 187.5q0 72 23.5 145.5t58.5 132.5t76.5 123t76.5 118t58.5 117t23.5 120q0 76 -27 136t-71.5 96t-98 54.5t-110.5 18.5q-82 0 -159 -18.5t-177 -65.5q3 -23 3 -48 q0 -57 -17 -126q-22 -83 -68 -157l-16 4q50 94 66 155q9 43 12.5 84t2.5 60l-1 20q-128 -76 -222 -122.5t-156.5 -64.5t-92.5 -22t-74 -4q-135 0 -238.5 79t-103.5 185zM18 1251q0 -105 98.5 -175t229.5 -70q97 0 220.5 52t320.5 165q-17 66 -44.5 116t-73.5 90.5t-118 62 t-168 21.5q-97 0 -176.5 -13t-146.5 -41.5t-104.5 -81.5t-37.5 -126zM209 -383q0 -101 85.5 -188.5t224.5 -138t294 -50.5q82 0 159 15t136 36t117 56.5t96.5 64t80 73t61 68t46 64.5t29.5 47t16 29q-115 113 -162 153q-275 234 -579 234q-267 0 -435.5 -133t-168.5 -330z " />
<glyph unicode="Z" horiz-adv-x="1384" d="M-143 -549q0 83 63 164.5t159.5 140t216 95t228.5 36.5q31 0 106 2t91 2q20 58 20 84q0 44 -24.5 83.5t-48.5 39.5q-27 -14 -69 -35t-127.5 -56.5t-117.5 -35.5q-80 0 -80 58q0 19 6 32t21 22.5t22.5 12.5t28.5 10q44 16 110.5 25t111.5 11l44 1l30 30q58 57 93 93 t104.5 111.5t116 132.5t104.5 139.5t93 151.5t59.5 147.5t24.5 147.5q0 106 -61.5 171.5t-159.5 65.5q-46 0 -129.5 -27t-132.5 -59q6 -3 16 -8.5t35 -27t44.5 -46.5t35.5 -67t16 -88q0 -110 -39.5 -231.5t-103.5 -221.5t-154.5 -165.5t-183.5 -65.5q-97 0 -167.5 74.5 t-70.5 179.5q0 72 28.5 147.5t74.5 138t101.5 121t111.5 103.5t102 79t74.5 52.5t28.5 19.5q-3 1 -9.5 1.5t-29.5 -0.5t-50 -4.5t-71 -13.5t-92 -26q-140 -46 -255 -173.5t-179 -311.5q-12 12 -14 1v1q-1 3 -1 6q35 98 86.5 182t101 136t102.5 91.5t87 56.5t59 25 q86 28 145 40q51 10 78 10h8q27 -2 54 -5q54 29 94.5 47t108.5 34q64 16 125 16h8q161 -3 272 -99t111 -233q0 -210 -181 -421t-569 -482q9 -3 24 -10.5t46.5 -36t46.5 -64.5q28 -64 31 -139l141 -33l-2 -18l-137 26q-18 -124 -94 -237.5t-177.5 -189t-213 -120.5 t-205.5 -45q-130 0 -215.5 50.5t-85.5 148.5zM-129 -549q0 -42 30 -70t79 -28q99 0 217 40.5t224 107.5t187 164.5t105 201.5q-70 4 -158 4q-143 0 -274.5 -42t-219 -105.5t-139 -136.5t-51.5 -136zM207 580q0 -93 66 -164.5t153 -71.5q84 0 170 62.5t149.5 158.5t103.5 216 t40 229q0 48 -16 89t-39 65t-46 41t-39 23l-16 7q-11 -7 -30 -19.5t-73.5 -53t-104.5 -82.5t-110.5 -104.5t-104 -122.5t-73.5 -133t-30 -140zM311 27q0 -14 12 -22.5t27 -8.5q27 0 82 27.5t96 54.5l41 28q-5 2 -28 2t-61.5 -2.5t-63.5 -7.5q-35 -7 -51.5 -11.5t-35 -20 t-18.5 -39.5z" />
<glyph unicode="[" horiz-adv-x="614" d="M-170 -248l1202 2153h406l-25 -45h-225l-1153 -2063h225l-24 -45h-406z" />
<glyph unicode="\" horiz-adv-x="776" d="M131 1331l64 -2l516 -1388l-66 2z" />
<glyph unicode="]" horiz-adv-x="614" d="M-377 -248l25 45h225l1153 2063h-225l24 45h406l-1202 -2153h-406z" />
<glyph unicode="^" horiz-adv-x="856" d="M211 408q52 42 184 126t170 113q29 26 53 2q173 -186 222 -235h2l-21 -11q-82 54 -227 160q-39 -24 -183.5 -87.5t-183.5 -84.5z" />
<glyph unicode="_" horiz-adv-x="1024" d="M-12 -154h1050v-102h-1050v102z" />
<glyph unicode="`" horiz-adv-x="614" d="M154 983q0 32 23.5 59t64.5 27q19 0 42 -13t40 -34l131 -274h-54l-204 153q-43 39 -43 82z" />
<glyph unicode="a" horiz-adv-x="872" d="M-109 172q0 70 35 147t93.5 143t146.5 109t184 43q36 0 59.5 -9.5t45.5 -39.5q23 31 43 31q12 0 43 -6t43 -6q8 0 32 25.5t35 29.5l-268 -504q-35 -64 -35 -94q0 -17 11.5 -29t33.5 -12q54 0 211 144.5t299 316.5l17 -15q-172 -211 -319 -344t-220 -133q-62 0 -94.5 29.5 t-61.5 91.5q-91 -121 -194 -121q-62 0 -101 52.5t-39 150.5zM12 68q0 -36 8 -52t33 -16q35 0 69 24.5t52.5 49.5t40.5 61q209 356 209 393q0 19 -11.5 34.5t-31.5 15.5q-63 0 -132.5 -63.5t-119.5 -149t-83.5 -169.5t-33.5 -128z" />
<glyph unicode="b" horiz-adv-x="817" d="M-72 127q0 111 51.5 254.5t113.5 253.5t128 199q345 469 520 469q27 0 45.5 -26.5t18.5 -59.5q0 -82 -47 -173t-115 -164.5t-144.5 -138t-135 -102.5t-87.5 -49q-18 -42 -84.5 -162.5t-113.5 -220.5t-47 -146q0 -28 17.5 -46t47.5 -19h1q53 0 134 99q82 100 119 175 q-14 8 -28 21.5t-30 50.5t-16 84q0 75 31.5 131.5t83.5 56.5q154 0 154 -153q0 -46 -16 -103.5t-33 -83.5q33 1 71 9t87 27t100.5 58t93.5 93l16 -15q-145 -192 -381 -196q-56 -95 -185.5 -188t-231.5 -93q-61 0 -99.5 44.5t-38.5 113.5zM289 625q74 39 144.5 105.5 t119.5 135.5t87.5 138.5t58 119t20.5 72.5v13q0 51 -23 51q-31 0 -113 -110t-155 -241q-32 -57 -52 -97t-33 -67.5t-54 -119.5zM305 426q0 -88 57 -131q4 11 16 40t19.5 49t14 54.5t6.5 69.5q0 74 -39 74q-33 0 -53.5 -47.5t-20.5 -108.5z" />
<glyph unicode="c" horiz-adv-x="794" d="M-109 154q0 110 44 200.5t113.5 145.5t149 84.5t156.5 29.5q52 0 87.5 -31.5t35.5 -74.5q0 -46 -38 -83.5t-85 -37.5q-36 0 -54.5 14.5t-18.5 38.5q0 40 20 70q35 -27 59 -27q14 0 39 22.5t25 45.5q0 43 -70 43q-47 0 -109.5 -62t-114 -146t-88 -173t-36.5 -141 q0 -35 26.5 -56.5t65.5 -21.5q70 0 153 24.5t178.5 76t199.5 146t196 220.5l17 -15q-167 -235 -365.5 -356t-378.5 -121q-104 0 -155.5 48.5t-51.5 136.5z" />
<glyph unicode="d" horiz-adv-x="884" d="M-104 158q0 129 70 235t180.5 163.5t232.5 57.5q31 0 52.5 -12.5t51.5 -42.5q86 147 173.5 273.5t175.5 231t169 164.5t142 60q24 0 41.5 -20t17.5 -51q0 -77 -67.5 -186.5t-163.5 -209t-199.5 -182t-177.5 -117.5q-232 -422 -232 -473q0 -24 12 -38.5t32 -14.5 q59 0 175.5 110.5t333.5 354.5l17 -15q-66 -75 -99 -111.5t-85.5 -94t-79.5 -85t-66.5 -66.5t-62.5 -56.5t-51.5 -36.5t-49.5 -26t-41 -7q-65 0 -100 32t-64 109q-71 -86 -89 -102q-40 -33 -97 -33q-64 0 -107.5 58.5t-43.5 130.5zM10 68q0 -29 11 -50.5t34 -21.5 q24 0 45 10.5t43.5 36t37.5 45.5t44 63t45 66q170 236 170 315q0 20 -20 38t-41 18q-56 0 -146 -100.5t-156.5 -226t-66.5 -193.5zM629 586q104 63 198.5 152.5t155.5 176t97 163.5t36 124q0 19 -11 32t-26 13q-77 0 -432 -629q-13 -23 -18 -32z" />
<glyph unicode="e" horiz-adv-x="628" d="M-109 154q0 82 34 157t87 128.5t116.5 94t124 60.5t107.5 20q48 0 82.5 -32.5t34.5 -79.5q0 -57 -37.5 -106t-91.5 -80t-115.5 -53.5t-108.5 -32t-71 -9.5q-1 -2 -6.5 -13.5t-6.5 -13.5t-5 -12l-5 -12.5t-4 -11.5t-3.5 -13.5t-2.5 -13.5t-2.5 -16t-1 -17t-0.5 -20 q0 -76 56 -76q58 0 132 36t142 90t133 118t111 120t69 95l17 -15q-20 -34 -63.5 -89t-109.5 -123t-136.5 -126.5t-150 -98.5t-144.5 -40q-82 0 -131.5 55t-49.5 130zM74 270q54 0 127 52t123.5 116.5t50.5 102.5q0 47 -43 47q-45 0 -113 -83t-145 -235z" />
<glyph unicode="f" horiz-adv-x="485" d="M-920 -528q0 81 59.5 148t135.5 67q38 0 69 -32t31 -73q0 -40 -33 -68t-79 -28q-20 0 -35 11t-33 42q64 9 64 33q0 22 -12.5 37.5t-30.5 15.5q-30 0 -68.5 -56t-38.5 -116q0 -59 52 -101t122 -42q55 0 104.5 30.5t97 92.5t91 138.5t96 188t102.5 219.5t121.5 253.5 t141.5 271.5h-123l20 37h125q38 66 84.5 139.5t120.5 177.5t142.5 183.5t143.5 136.5t130 57q29 0 54.5 -24t25.5 -52q0 -59 -37.5 -140.5t-102 -166.5t-162.5 -169t-208 -142h112l-20 -37h-145q-50 -94 -114.5 -220.5t-107.5 -210t-98 -187.5t-96.5 -172t-92 -143.5 t-95 -121.5t-95.5 -86t-104.5 -58t-110.5 -18q-87 0 -145 53.5t-58 131.5zM219 541q125 92 219.5 188.5t144 175.5t73.5 138.5t24 99.5q0 59 -35 59q-49 0 -206 -258.5t-220 -402.5z" />
<glyph unicode="g" horiz-adv-x="708" d="M-385 -502q0 40 27 88.5t81 102t149.5 108t219.5 97.5l62 161q-41 -51 -66 -68.5t-57 -17.5q-70 0 -109 51.5t-39 149.5q0 84 43 167t108 143t142 97t143 37q30 0 44.5 -7t35.5 -29q25 18 43 18q33 0 53 -9t25 -9t15 9.5t27 25.5t32 26q-127 -195 -197 -328 q-31 -59 -72 -147.5t-67 -147.5l-25 -59q155 100 281.5 221t224.5 283l17 -15q-52 -94 -119 -176.5t-141 -147.5t-135.5 -110t-135.5 -92q-15 -33 -42.5 -105t-49 -127t-58 -123.5t-73.5 -113t-90.5 -75.5t-114.5 -31q-77 0 -129.5 44.5t-52.5 108.5zM-354 -496 q0 -35 25.5 -57t60.5 -22q65 0 137.5 72.5t125.5 168.5t87 195q-62 -18 -137 -57t-142 -88t-112 -106.5t-45 -105.5zM4 55q0 -28 6.5 -39.5t30.5 -11.5q48 0 128.5 121t139 251.5t58.5 168.5q0 15 -11 27t-26 12q-57 0 -136.5 -105t-134.5 -231.5t-55 -192.5z" />
<glyph unicode="h" horiz-adv-x="700" d="M-246 -53q284 564 547 948q55 79 108 146t111 130t111.5 99.5t93.5 36.5q29 0 51.5 -17t22.5 -45q0 -84 -52.5 -181.5t-127 -178t-161 -154t-151 -118t-100.5 -62.5l-41 -90q77 72 150 112.5t114 40.5q37 0 60.5 -24.5t23.5 -61.5q0 -41 -42 -119.5t-92 -150.5 t-92 -133.5t-42 -71.5q0 -15 7.5 -26t20.5 -11q20 0 47.5 15.5t63.5 47.5t67.5 63t76 81.5t71 81.5t72 85t59.5 71l17 -15q-14 -17 -55 -68.5t-60 -74.5t-58 -70t-61.5 -70.5t-57.5 -60t-60 -56t-54 -40t-54 -29t-48 -8.5q-48 0 -80.5 28.5t-32.5 70.5q0 32 41.5 105 t90.5 143t90.5 136t41.5 87q0 7 -4.5 13.5t-11.5 6.5q-48 0 -114 -52.5t-103 -111.5q-40 -70 -81.5 -146.5t-63.5 -117.5t-44 -78.5t-36 -52t-27 -14.5q-17 0 -41 8t-33 8q-14 0 -38 -23t-40 -32zM231 606q143 95 255.5 217t166.5 223.5t54 167.5q0 21 -6 36.5t-15 15.5 q-57 0 -209 -243q-50 -79 -246 -417z" />
<glyph unicode="i" horiz-adv-x="481" d="M-139 92q0 49 24.5 116.5t48.5 113.5t72 127.5t60 103.5q1 3 4 8.5t4.5 7.5t4 7t4 6.5l4.5 4.5t6 4l7.5 2.5t9.5 2t11 0.5q35 0 47 -9t22 -9q8 0 36.5 29t41.5 32l-260 -496q-20 -39 -20 -77q0 -23 12.5 -38.5t36.5 -15.5q35 0 147 104.5t200 200t128 144.5l16 -15 q-77 -92 -137.5 -159t-141 -148.5t-148 -125.5t-113.5 -44q-56 0 -91.5 32.5t-35.5 90.5zM227 815q0 43 32 75t73 32q32 0 53 -21t21 -49q0 -44 -31.5 -80.5t-69.5 -36.5q-32 0 -55 24t-23 56z" />
<glyph unicode="j" horiz-adv-x="405" d="M-725 -526q0 106 143.5 227.5t327.5 163.5q71 208 141 356.5t162 304.5q21 36 38 54t38 18q12 0 31 -9t34 -9q10 0 36.5 28t41.5 31l-372 -711q65 49 200 182.5t238 241.5l102 109l17 -15q-391 -432 -564 -548q-18 -30 -41.5 -92t-44.5 -121.5t-55 -127t-71.5 -117.5 t-94 -83t-123.5 -33q-78 0 -131 43t-53 107zM-698 -520q0 -32 24.5 -54t61.5 -22q48 0 100.5 41t92.5 97.5t75 120.5t53 105t23 56q-90 -8 -192.5 -68.5t-170 -139t-67.5 -136.5zM201 809q0 43 34.5 78t77.5 35q33 0 52.5 -20t19.5 -56q0 -45 -32.5 -80t-76.5 -35 q-32 0 -53.5 22.5t-21.5 55.5z" />
<glyph unicode="k" horiz-adv-x="694" d="M-250 -55l254 479q17 34 76 127t151 222t186 247t188.5 200.5t152.5 82.5q30 0 57 -19t27 -45q0 -61 -45 -144t-114.5 -163t-149 -155t-153.5 -129.5t-124 -76.5l-66 -100q77 64 149 103.5t120 39.5q37 0 59.5 -21.5t22.5 -57.5q0 -112 -215 -228q22 -32 29 -46.5 t7 -33.5q0 -28 -43 -103.5t-43 -88.5q0 -17 23 -17q36 0 142.5 111t194.5 221l89 111l16 -15q-6 -7 -49.5 -64t-68 -87t-72.5 -87.5t-83 -92t-78 -72.5t-79.5 -56t-66.5 -18q-36 0 -63 23t-27 57q0 27 39.5 114t39.5 107q0 7 -6.5 11t-20.5 5t-29 1h-38.5t-42.5 2 q-34 -55 -64 -111t-44.5 -87t-29.5 -57.5t-29.5 -37t-34.5 -10.5q-12 0 -35 8t-31 8q-9 0 -35.5 -25.5t-42.5 -31.5zM111 319q16 -1 31 -1q63 0 104 14q57 21 108.5 68.5t51.5 101.5q0 39 -44 39t-131.5 -79.5t-119.5 -142.5zM283 621q105 59 214.5 180.5t176.5 239.5 t69 182q0 43 -22 43q-31 0 -129 -128t-191.5 -284.5t-117.5 -232.5z" />
<glyph unicode="l" horiz-adv-x="479" d="M-86 141q0 83 48.5 209t125 258t171.5 267t186 240t171 171t125 66q25 0 44.5 -23t19.5 -51q-1 -39 -22 -101.5t-69 -147.5t-114.5 -171t-168.5 -176.5t-220 -159.5q-7 -14 -34 -71.5t-44.5 -97t-39 -96t-33 -106t-11.5 -90.5q0 -19 12.5 -34t30.5 -15q81 0 202.5 134 t215.5 315l16 -15q-63 -114 -116 -193t-113.5 -145t-124.5 -100.5t-135 -38.5h-6q-51 1 -83 45q-34 48 -34 127zM254 590q90 53 179.5 154t149 203t97 190.5t37.5 128.5q0 17 -8.5 30t-20.5 13q-32 0 -120 -128.5t-178.5 -299t-135.5 -291.5z" />
<glyph unicode="m" horiz-adv-x="1089" d="M-262 -55l287 538q44 83 55 96q15 17 35 17t46.5 -6t33.5 -6t33.5 26.5t39.5 28.5l-104 -197q167 172 291 172q29 0 49 -14.5t28 -35t12 -41.5t4 -35l-1 -15q97 90 128 110q48 31 116 31q38 0 66 -30.5t28 -69.5q0 -16 -35 -72l-199 -321q-30 -49 -30 -68q0 -21 13 -35 t28 -14q17 0 80 53.5t130 126.5l248 277l17 -15l-250 -278q-97 -109 -131 -139q-69 -60 -135 -60q-51 0 -87 37t-36 92q0 24 38.5 89t84 131t84 128t38.5 82q0 35 -36 35q-25 0 -96 -70t-144 -157q-9 -12 -83 -153t-89 -165q-18 -30 -55 -30q-13 0 -36.5 9t-31.5 9 q-7 0 -25.5 -15t-33.5 -31l-15 -15q305 563 305 590q0 28 -22 28q-26 0 -70.5 -33t-75.5 -64t-88 -91q-47 -49 -100 -148.5t-90.5 -169t-58.5 -69.5q-22 0 -51 9t-35 9t-24.5 -15t-33.5 -31z" />
<glyph unicode="n" horiz-adv-x="788" d="M-250 -55l316 602q14 27 26 38t35 11q19 0 39 -8t33 -8q9 0 33.5 26t41.5 33l-104 -197q106 93 174 132.5t133 39.5q43 0 68.5 -25.5t25.5 -68.5q0 -49 -39 -110l-190 -297q-37 -57 -37 -70q0 -37 43 -37q57 0 170 123l301 332l17 -15l-316 -354q-53 -61 -100 -93 t-107 -32q-55 0 -84 34t-34 91q-1 19 0 31.5t11.5 37t31.5 56.5l170 260q28 45 28 62q0 18 -30 18q-52 0 -153.5 -91.5t-203.5 -262.5q-20 -33 -53.5 -98.5t-53 -91t-40.5 -25.5q-14 0 -39.5 9t-36.5 9q-8 0 -27 -15t-34 -31z" />
<glyph unicode="o" horiz-adv-x="755" d="M-104 160q0 85 41 169t105.5 146t149.5 100.5t168 38.5q71 0 118.5 -54.5t47.5 -137.5q0 -32 -8 -61.5t-24 -64.5t-17 -38q17 3 62 23q115 53 247 180l17 -15q-74 -89 -252 -188q-71 -27 -92 -31q-21 -35 -58 -75.5t-89.5 -83.5t-121.5 -71t-137 -28q-69 0 -113 59 t-44 132zM14 66q0 -70 39 -70q57 0 116 57.5t138 190.5q-112 37 -112 100q0 31 18.5 48.5t44.5 17.5q43 0 43 -43q0 -16 -13.5 -26.5t-27.5 -12.5l-14 -2q7 -21 32.5 -40t45.5 -22q46 98 62.5 158t16.5 117q0 51 -49 51q-58 0 -140.5 -101.5t-141 -227t-58.5 -195.5z" />
<glyph unicode="p" horiz-adv-x="761" d="M-637 -743q174 305 369.5 681.5t328.5 612.5l6 10q6 10 11 16t17 12.5t26 6.5t37 -8t32 -8q12 0 38 27.5t40 31.5l-35 -64q42 39 103 39q57 0 96 -49.5t39 -118.5q0 -71 -31.5 -142t-83.5 -130.5t-95 -99t-91 -74.5q32 -41 68 -41q117 0 271.5 144.5t283.5 357.5l16 -15 q-83 -140 -177.5 -253t-200 -186t-193.5 -73q-51 0 -93 48q-76 -54 -145 -54q-36 0 -59 26t-31 69q-82 -150 -162 -342.5t-122.5 -283.5t-74.5 -91q-18 0 -43.5 6.5t-41.5 13.5l-17 6zM-59 68q0 -29 15 -56.5t40 -27.5q11 0 20.5 2t15.5 4t15 9.5t12.5 10.5t15.5 15.5 t17 17.5q-52 49 -98 49q-53 0 -53 -24zM-39 113q15 6 53 6q15 0 40 -13.5t43 -26.5l18 -13q82 103 157.5 249t75.5 213q0 43 -41 43q-47 0 -108 -64.5t-112.5 -153.5t-83.5 -151.5t-42 -88.5z" />
<glyph unicode="q" horiz-adv-x="757" d="M-117 -526q0 81 60.5 196t244.5 377q-61 -48 -91.5 -63t-71.5 -15q-67 0 -97 60t-30 155q0 83 44.5 164t111.5 138t147 92.5t149 35.5q27 0 42 -6.5t44 -29.5q18 18 49 18q14 0 34.5 -7t35.5 -7q10 0 37.5 27.5t38.5 29.5l-361 -623q67 22 116.5 46t115 71.5t136.5 129 t150 198.5l17 -15q-131 -210 -256.5 -313.5t-284.5 -144.5q23 -37 47.5 -110t24.5 -109q0 -97 -44 -207t-119.5 -188.5t-154.5 -78.5q-63 0 -99 49t-36 130zM25 72q0 -26 14.5 -41t38.5 -15q44 0 84.5 53.5t126.5 211.5q91 164 102 195q12 31 12 65q0 30 -36 30 q-58 0 -141 -98.5t-142 -218.5t-59 -182zM41 -532q0 -37 19 -61.5t51 -24.5q38 0 84 62.5t78 154.5t32 170q0 73 -65 200q-102 -169 -139.5 -243t-48.5 -122.5t-11 -135.5z" />
<glyph unicode="r" horiz-adv-x="602" d="M-29 506q0 52 39 104t80 52q20 0 34.5 -13.5t14.5 -34.5q0 -27 -20 -66t-51 -75q11 9 32.5 27t31 25.5t27 22t25.5 20.5t22 15.5t22 13.5t18.5 9t19.5 6.5t17 1.5q31 0 51 -23.5t20 -55.5q0 -15 -4.5 -29.5t-9 -23t-14.5 -24.5l-15 -24l-161 -276q-39 -64 -39 -84 q0 -28 15 -42t38 -14q50 0 109 37t123 105.5t118.5 138.5t118.5 162l16 -15q-98 -148 -178 -245t-146 -146.5t-117.5 -67.5t-109.5 -18q-52 0 -80 40q-31 43 -30 114q0 38 42 113q43 77 86.5 147.5t43.5 93.5q0 10 -1 12.5t-7 2.5q-17 0 -34 -16t-40 -32t-55 -16 q-24 0 -38 21.5t-14 56.5zM6 506q0 -35 23 -35q80 101 80 141q0 19 -19 19q-28 0 -56 -46.5t-28 -78.5z" />
<glyph unicode="s" horiz-adv-x="505" d="M-283 111q0 46 28 80t71 34q33 0 82 -42.5t63 -47.5q37 26 57.5 82t20.5 98q0 19 -19.5 86.5t-19.5 112.5q0 74 28.5 135.5t80.5 61.5q51 0 51 -37q0 -17 -3.5 -34t-12 -35.5t-14 -29t-18.5 -32t-16 -27.5q62 -135 62 -223q0 -50 -12.5 -109t-24.5 -78q49 11 80 21t74 34 t79.5 59.5t84 95.5t98.5 145l16 -15q-55 -92 -108 -158.5t-93.5 -103t-87.5 -60t-78 -31.5t-77 -15q-41 -48 -100.5 -80.5t-129.5 -32.5q-78 0 -120 39.5t-42 106.5zM-207 147q0 -46 66 -57q11 -2 22 -2q13 0 27 4q24 6 33 23q-21 10 -56.5 41.5t-54.5 31.5q-15 0 -26 -12 t-11 -29zM72 606q0 -41 12 -65q51 72 51 129q0 9 -6 16q-5 6 -15 6h-3q-11 0 -24.5 -26.5t-14.5 -59.5z" />
<glyph unicode="t" horiz-adv-x="481" d="M-133 104q0 39 9.5 67t33.5 75l162 325h-152l33 31h166q92 59 149.5 123.5t173.5 239.5h23l-207 -363h154l-13 -31h-153l-213 -372q-41 -71 -46 -95q-1 -7 -1 -14q0 -23 17.5 -50.5t37.5 -27.5q57 0 140 63t134 130q138 174 197 256l16 -15q-31 -49 -79 -113.5 t-81 -104.5l-32 -40q-84 -114 -180 -166.5t-181 -52.5q-44 0 -76 40t-32 95z" />
<glyph unicode="u" horiz-adv-x="849" d="M-147 72q0 97 67 217l154 278q7 14 17.5 20.5t17.5 7.5t20 1q7 0 30 -7t38 -7q9 0 35.5 27t37.5 30l-243 -459q-37 -68 -37 -114q0 -54 53 -54q25 0 104 86t136 187l159 284q15 27 47 27q15 0 37 -7t37 -7q9 0 35 26t39 31l-260 -489q-33 -59 -33 -91q0 -41 53 -41 q69 0 210 128.5t274 314.5l16 -15q-31 -46 -69.5 -97.5t-101.5 -122.5t-124.5 -125.5t-135 -93t-136.5 -38.5q-107 0 -121 172q-86 -98 -109 -118q-55 -50 -126 -54h-17q-55 0 -79.5 34t-24.5 69z" />
<glyph unicode="v" horiz-adv-x="770" d="M-135 86q0 48 17 108t42 105l148 268q15 29 45 29q19 0 42.5 -8t33.5 -8q7 0 29.5 25t41.5 32l-244 -467q-30 -56 -30 -92t18.5 -57t46.5 -21q131 0 267 289q-66 76 -66 149q0 78 50 135.5t100 57.5q44 0 80 -49.5t36 -108.5q0 -50 -19 -103t-38 -81q61 0 151 44t185 128 l16 -15q-72 -70 -168.5 -125t-199.5 -59q-16 -40 -60 -89t-105.5 -95.5t-144 -77.5t-162.5 -31q-46 0 -79 37t-33 80zM281 436q0 -35 14.5 -62t42.5 -61q86 146 86 179q0 92 -49 92q-37 0 -65.5 -48t-28.5 -100z" />
<glyph unicode="w" horiz-adv-x="1130" d="M-145 104q0 33 7.5 61t13 39.5t26.5 49.5l164 301q23 41 51 41q16 0 41 -7t39 -7q10 0 35.5 27t37.5 30l-258 -487q-28 -55 -28 -86q0 -23 10 -38.5t22 -15.5q58 0 138.5 81.5t136.5 185.5l155 288q16 29 46 29q13 0 37.5 -7t37.5 -7q12 0 37 26t39 31l-244 -461 q-39 -71 -39 -112q0 -66 58 -66q69 0 135.5 66.5t140.5 209.5q-67 65 -67 160q0 83 44.5 139t112.5 56q45 0 82 -50t37 -110q0 -51 -12.5 -94.5t-21 -58t-29.5 -44.5q42 4 109.5 31.5t131 71t80.5 84.5l17 -15q-31 -57 -101.5 -102.5t-133 -67t-120.5 -32.5 q-74 -113 -210 -194t-246 -81q-51 0 -76 17t-45 57q-8 21 -7 46.5t6 46.5l5 22q-92 -104 -151.5 -146.5t-135.5 -42.5q-44 0 -76 36.5t-32 98.5zM655 413v-5q0 -17 11 -47q13 -34 39 -56q28 34 51.5 108t23.5 132q0 43 -39 43q-38 0 -62 -45t-24 -107q2 -5 0 -23z" />
<glyph unicode="x" horiz-adv-x="794" d="M-299 41q0 35 49 74q29 -33 48 -46.5t42 -13.5q41 0 101.5 63.5t83.5 102.5q-1 20 -9 147.5t-8 151.5t1 37t5.5 26.5t14.5 19t26 5.5h72q8 0 20 30.5t19 35.5l4 -268q64 55 93 78.5t80 61t89 53t72 15.5q32 0 56 -16.5t24 -38.5t-33 -80q-62 49 -109 49q-46 0 -112 -37 t-110.5 -74.5t-49.5 -49.5q0 -344 113 -344q54 0 133.5 48t157 119t143.5 142.5t108 128.5l17 -15q-189 -243 -348 -360t-275 -117q-60 0 -103.5 48t-80.5 155q-103 -116 -157.5 -159.5t-102.5 -43.5q-32 0 -53 20.5t-21 51.5z" />
<glyph unicode="y" horiz-adv-x="782" d="M-410 -455q0 44 19.5 84t57.5 73t81 60.5t104 53t111.5 43.5t116.5 39l86 174q-134 -103 -203 -103q-50 0 -79 38t-29 102q0 21 8.5 59t25.5 68l168 311q9 19 27 34t31 15q22 0 44.5 -8t35.5 -8q9 0 35 27.5t38 31.5l-250 -467q-23 -43 -28.5 -60t-5.5 -40q0 -58 30 -58 t101.5 42t107.5 106l215 385q6 11 10 18t11.5 15t16.5 12t20 4q23 0 41 -8t32 -8q8 0 35.5 27.5t40.5 31.5q-6 -10 -49 -94t-87 -166.5t-118 -204t-147 -223.5q65 40 111.5 78t105.5 97t82 81l270 254l16 -15l-270 -258q-20 -19 -75.5 -72.5t-78 -73t-72.5 -55t-108 -67.5 q-21 -36 -55.5 -104t-60.5 -119.5t-66.5 -113t-79.5 -101t-93.5 -67t-113.5 -27.5q-70 0 -118 44.5t-48 112.5zM-393 -453q0 -38 24.5 -62t61.5 -24q50 0 95.5 32.5t111.5 120.5t174 263q-68 -23 -113 -40t-106 -42.5t-99.5 -50t-75.5 -55.5t-55 -66.5t-18 -75.5z" />
<glyph unicode="z" horiz-adv-x="638" d="M-539 -553q0 90 81.5 180t207.5 157t273 107q0 1 0.5 17.5t0.5 27.5t-3.5 31.5t-10.5 38.5q-78 -29 -114 -29q-74 0 -74 52q0 21 24 38t58 17q68 0 133 -37q48 40 115 163.5t67 219.5q0 32 -19 52t-55 20q-21 0 -63 -32t-82 -89v35q43 83 102.5 140.5t135.5 57.5 q59 0 98 -44t39 -105q0 -66 -25.5 -132t-64 -116t-83.5 -92t-83 -66.5t-64 -33.5q12 -14 32 -46t24 -49q141 69 273.5 192.5t285.5 338.5l16 -15q-25 -39 -52.5 -78t-84 -107.5t-115.5 -126.5t-142.5 -120.5t-168.5 -103.5q10 -41 10 -133q0 -88 -40 -175t-106.5 -155.5 t-161.5 -111t-198 -42.5q-76 0 -121 41.5t-45 112.5zM-485 -600q0 -36 30 -61t68 -25q59 0 133 59t134 142.5t101.5 181.5t41.5 170q-64 -16 -149.5 -62.5t-166.5 -109.5t-136.5 -143t-55.5 -152zM-152 29q0 -16 14.5 -24.5t33.5 -8.5h7q7 0 14 1q11 2 23 6.5t20.5 7.5 t20.5 9t15 7q-53 39 -92 39h-3q-20 0 -36 -11q-17 -12 -17 -26z" />
<glyph unicode="{" horiz-adv-x="819" d="M215 -239.5q-3 41.5 8 90t37 120.5l131 369q22 55 8 107.5t-63 76.5q63 15 120 76t85 141l125 365q24 71 51 119t70.5 88.5t108.5 60t155 19.5q-66 -5 -136.5 -65.5t-99.5 -143.5l-156 -443q-29 -83 -91.5 -140.5t-135.5 -72.5l-6 -16q56 -6 82.5 -58.5t3.5 -117.5 l-135 -393q-17 -49 -26 -82t-13.5 -71t3 -63t29 -46.5t58.5 -32.5q-72 0 -117.5 12.5t-69 35.5t-26.5 64.5z" />
<glyph unicode="|" horiz-adv-x="532" d="M262 -164v1720h113v-1720h-113z" />
<glyph unicode="}" horiz-adv-x="819" d="M-57 -344q66 5 136 65.5t99 143.5l156 442q29 83 91.5 140.5t135.5 72.5l6 17q-56 6 -82.5 58.5t-3.5 117.5l135 393q17 49 26 81t13.5 69.5t-3 61.5t-29 45t-58.5 32q73 0 118 -12t68.5 -34.5t26 -63t-8 -88.5t-36.5 -120l-131 -368q-22 -55 -8 -108t63 -77 q-62 -15 -119 -76t-85 -141l-125 -364q-24 -71 -51 -119t-70.5 -88.5t-108.5 -60t-155 -19.5z" />
<glyph unicode="~" horiz-adv-x="901" d="M135 348q39 64 111.5 97.5t163.5 33.5q60 0 155.5 -18.5t157.5 -18.5q33 0 65.5 6t49.5 11t62 21q10 3 15 5q-60 -135 -251 -135q-57 0 -150 14.5t-152 14.5q-91 0 -227 -31z" />
<glyph unicode="&#xa1;" horiz-adv-x="671" d="M-6 -311q0 60 73 186t275 414l221 344h23q-42 -78 -62 -125l-299 -705q-34 -84 -84 -139t-94 -55q-24 0 -38.5 22t-14.5 58zM637 899q0 46 37 84.5t82 38.5q38 0 62 -28.5t24 -73.5q0 -46 -37 -84.5t-82 -38.5q-38 0 -62 28.5t-24 73.5z" />
<glyph unicode="&#xa2;" horiz-adv-x="727" d="M8 453q0 42 17.5 112t40.5 119q66 141 176 225t262 84l74 137l32 -10l-73 -137q108 -34 108 -145q0 -64 -42.5 -108t-104.5 -44q-46 0 -72.5 22t-26.5 60q0 47 24.5 75.5t65.5 28.5q18 0 43 -22q-34 -22 -34 -41q0 -15 8 -27t20 -12q25 0 50.5 27t25.5 59q0 31 -24 49.5 t-62 18.5q-60 0 -122.5 -50t-139.5 -159q-54 -76 -81.5 -141.5t-27.5 -149.5q0 -41 25.5 -73t62.5 -32q40 0 78 19.5t99 71.5l18 -27q-79 -70 -133 -92.5t-137 -18.5l-101 -188l-32 14l98 185q-55 18 -85 65.5t-30 104.5z" />
<glyph unicode="&#xa3;" horiz-adv-x="1413" d="M10 88q0 52 49.5 77t114.5 25q27 0 57.5 -4.5t52.5 -10t58.5 -15.5t58.5 -15q103 129 181 381q-18 -2 -37 -6.5t-32 -8t-35 -12.5t-31.5 -13t-37 -16.5t-36.5 -16.5q-9 20 2 92q116 44 227 47q30 100 72.5 196t100 186t121 158t141 109t155.5 41q80 0 133 -63.5 t53 -151.5q0 -91 -53 -159t-137 -68q-59 0 -105.5 44t-46.5 99q0 42 34 73t77 31q52 0 82 -40q-18 -4 -43 -24t-25 -40q0 -26 19 -44.5t41 -18.5q43 0 81.5 50t38.5 105q0 57 -37 102.5t-90 45.5q-58 0 -109 -32t-86 -79.5t-70.5 -120.5t-58.5 -136.5t-54 -147t-54 -134.5 q11 -2 40 -9t43.5 -10t37 -6t41.5 -3q57 0 103 12l12 -16q-18 -18 -61 -31.5t-85 -13.5q-49 0 -157 22q-129 -262 -271 -387q120 -29 189 -29q127 0 238.5 71.5t172.5 166.5l31 -8q-15 -46 -49 -102.5t-80.5 -112t-108 -92.5t-120.5 -37q-136 0 -332 94q-125 -86 -279 -86 q-58 0 -97.5 22.5t-39.5 69.5zM90 98q0 -32 26 -51.5t62 -19.5q106 0 191 82q-111 51 -181 51q-38 0 -68 -15.5t-30 -46.5z" />
<glyph unicode="&#xa8;" horiz-adv-x="575" d="M115 1489q4 25 26 43t47 18q24 0 40 -18.5t10 -42.5q-4 -23 -27 -41t-47 -18q-27 0 -40.5 17.5t-8.5 41.5zM371 1489q4 25 26 43t47 18t40.5 -18.5t9.5 -42.5q-5 -23 -27 -41t-47 -18q-26 0 -40 17.5t-9 41.5z" />
<glyph unicode="&#xab;" horiz-adv-x="559" d="M111 375l321 205l-16 -48l-250 -157l149 -182l-18 -48zM313 375l322 205l-17 -48l-249 -157l149 -182l-18 -48z" />
<glyph unicode="&#xad;" horiz-adv-x="548" d="M37 309q0 22 51 51q3 2 13.5 8t13 7.5t11 6.5t11 6t10 4.5t11.5 4t10.5 2.5t12.5 2.5t13 1t15 0.5q23 0 81.5 -8t71.5 -8q35 0 68 7t41 7q6 0 7 -2t1 -10q0 -5 -3 -15t-14 -25.5t-27.5 -28t-46.5 -22t-69 -9.5q-6 0 -82.5 11t-125.5 11q-13 0 -33.5 -7t-28.5 -7 q-5 0 -8.5 3.5t-3.5 8.5z" />
<glyph unicode="&#xb0;" horiz-adv-x="940" d="M86 868q0 74 58 157.5t141 138.5t151 55q62 0 93.5 -31t31.5 -88q0 -76 -47 -163t-129 -149.5t-168 -62.5q-63 0 -97 39.5t-34 103.5zM211 825q0 -49 41 -49q24 0 66.5 27t85.5 68t74.5 98t31.5 110q0 22 -1 33t-5.5 25t-16 20t-30.5 6q-54 0 -113.5 -65t-96 -144.5 t-36.5 -128.5z" />
<glyph unicode="&#xb2;" horiz-adv-x="833" d="M78 629v4q0 18 42 63t81 80q49 42 183 115.5t148 87.5q64 59 108 129t44 119q0 41 -33.5 70.5t-79.5 29.5q-56 0 -102.5 -41.5t-46.5 -93.5q0 -25 14.5 -42t34.5 -17q11 0 22 9t11 19q0 9 -4.5 22t-5.5 17q38 9 53.5 -11.5t15.5 -43.5q0 -29 -22.5 -49.5t-55.5 -20.5 q-38 0 -63 26.5t-25 67.5q0 69 70 126t156 57q72 0 114.5 -42.5t42.5 -117.5q0 -51 -26 -96t-64 -76t-92 -59.5t-99 -45.5t-96 -36.5t-73 -30.5q-52 -26 -106 -68t-54 -59q10 0 54.5 7.5t72.5 8.5q36 1 91.5 -10.5t76.5 -11.5q26 0 54 14.5t75 52.5q8 -26 -19.5 -65.5 t-76.5 -70t-95 -30.5q-37 0 -91.5 12.5t-78.5 12.5q-47 0 -78 -3t-41 -7t-17 -7t-11 -3t-8 8z" />
<glyph unicode="&#xb3;" horiz-adv-x="825" d="M43 788q0 53 35.5 94.5t81.5 41.5q32 0 57 -25.5t25 -56.5q0 -29 -19.5 -49.5t-48.5 -20.5q-12 0 -25 9.5t-20 25.5q43 12 43 29q0 38 -37 38q-34 0 -56 -26t-22 -64q0 -45 31.5 -73.5t85.5 -28.5q65 0 125.5 51.5t93.5 116.5t33 115q0 32 -25 52.5t-61 20.5 q-22 0 -49 -15l-27 -15q-5 0 -11.5 2.5t-6.5 5.5l323 225q-4 1 -22.5 6.5t-29.5 8.5t-29.5 7t-35.5 6t-34 1q-26 -1 -52.5 -8t-58.5 -20t-37 -15q3 5 8 13.5t23.5 30t39 38t53.5 30t67 13.5q23 0 83.5 -14.5t106.5 -14.5q44 0 103 29l-375 -267q53 -6 98 -47.5t45 -119.5 q0 -109 -98 -196t-221 -87q-67 0 -113.5 45t-46.5 108z" />
<glyph unicode="&#xb4;" horiz-adv-x="0" d="M-260 1432v14q64 34 140.5 85.5t123 78t80.5 26.5q12 0 21.5 -6t9.5 -16q0 -31 -52.5 -55t-154.5 -58.5t-168 -68.5z" />
<glyph unicode="&#xb7;" horiz-adv-x="1024" d="M1092 1473q0 34 33.5 62t74.5 28q35 0 57.5 -21t22.5 -55t-34 -62t-75 -28q-35 0 -57 21t-22 55z" />
<glyph unicode="&#xb8;" horiz-adv-x="374" d="M43 -184q10 12 29 2q8 -5 30.5 -9t48.5 -4.5t46 11.5t20 37q0 24 -36.5 27.5t-65.5 -3.5l16 53q29 13 59 13l35 65h41l-45 -69q32 -6 53 -28t21 -54q0 -39 -37.5 -67t-81.5 -28q-61 0 -123 33q-19 10 -10 21z" />
<glyph unicode="&#xb9;" horiz-adv-x="649" d="M92 610q17 58 30.5 97.5t19 52.5t20 40t18.5 36q28 55 91.5 141t107.5 142.5t39 56.5q-7 0 -37.5 -26t-56.5 -52l-27 -25l-29 -14q24 31 158.5 161t165.5 130q6 0 7.5 -0.5t0 -3t-1.5 -3.5q0 -5 -50.5 -76t-119.5 -176.5t-104 -179.5q-26 -53 -50.5 -115.5t-37.5 -97 t-19 -39.5q-4 -4 -24.5 -4.5t-38.5 1.5l-19 1q-29 -39 -43 -47z" />
<glyph unicode="&#xbb;" horiz-adv-x="583" d="M111 145l16 48l250 157l-150 182l19 48l186 -230zM313 145l17 48l250 157l-150 182l19 48l186 -230z" />
<glyph unicode="&#xbc;" horiz-adv-x="1239" d="M145 -78q0 71 144 309q182 294 353 517t505 600l35 -5q-163 -193 -484 -661t-374 -608q-19 -50 -36 -69t-50 -25q-15 -3 -23 -3q-11 0 -18 -8.5t-14 -24.5t-11 -22q-8 -12 -16 -12q-7 0 -9 2t-2 10zM207 504q17 58 30.5 97t19.5 52.5t19.5 39.5t18.5 36q28 55 91.5 141 t107 142.5t38.5 56.5q-7 0 -37 -25.5t-57 -51.5l-26 -25l-29 -15q24 31 158.5 161t165.5 130l8 -1l-1 -2l-1 -3q0 -5 -51 -76t-120 -176.5t-104 -179.5q-26 -53 -50 -115.5t-37 -97t-19 -39.5q-4 -4 -24.5 -4.5t-39.5 1.5l-18 1q-29 -39 -43 -47zM545 225q0 23 55 73 t145.5 124t139.5 125l155 168l70 -4l33 30q2 -16 -2 -26q-4 -11 -10.5 -22t-15 -21t-15.5 -17.5t-17.5 -17t-15.5 -13.5l-15 -12l-10 -8q-69 -54 -199 -141.5t-196.5 -141t-66.5 -85.5q0 -15 38.5 -24.5t81.5 -6.5l91 6q2 2 13.5 20t33.5 49.5t51 71.5t73 94.5t93 108.5 q1 1 5.5 6.5t8 8.5t9 6.5t9.5 3.5q2 0 -50 -90.5t-105 -181.5l-53 -91l157 12q-6 -11 -13.5 -28.5t-14.5 -28.5q-20 0 -74 3t-68 3q-6 -12 -27 -63t-38 -83t-27 -32q-9 0 -24 3t-26 6l-11 3q-29 -39 -45 -45q4 33 25.5 78t50 90.5t28.5 46.5l-125 4q-24 1 -39 2.5t-31 5.5 t-24 11.5t-8 19.5z" />
<glyph unicode="&#xbd;" horiz-adv-x="1239" d="M145 -78q0 71 144 309q182 294 353 517t505 600l35 -5q-163 -193 -484 -661t-374 -608q-19 -50 -36 -69t-50 -25q-15 -3 -23 -3q-11 0 -18 -8.5t-14 -24.5t-11 -22q-8 -12 -16 -12q-7 0 -9 2t-2 10zM207 504q17 58 30.5 97t19.5 52.5t19.5 39.5t18.5 36q28 55 91.5 141 t107 142.5t38.5 56.5q-7 0 -37 -25.5t-57 -51.5l-26 -25l-29 -15q24 31 158.5 161t165.5 130l8 -1l-1 -2l-1 -3q0 -5 -51 -76t-120 -176.5t-104 -179.5q-26 -53 -50 -115.5t-37 -97t-19 -39.5q-4 -4 -24.5 -4.5t-39.5 1.5l-18 1q-29 -39 -43 -47zM492 4v4q0 18 42 64.5 t80 79.5q49 42 183.5 115t148.5 87q64 59 108 129t44 119q0 41 -33.5 70.5t-79.5 29.5q-56 0 -102.5 -41.5t-46.5 -93.5q0 -25 14.5 -42t34.5 -17q11 0 22 9.5t11 19.5q0 9 -5 21.5t-6 16.5q21 5 36 0t21.5 -16t9.5 -20.5t3 -18.5q0 -29 -22 -49t-56 -20q-38 0 -63 26.5 t-25 67.5q0 69 69.5 125.5t155.5 56.5q72 0 115 -42.5t43 -117.5q0 -51 -26 -96t-64 -76t-92 -59.5t-99.5 -45.5t-96.5 -36.5t-73 -30.5q-51 -26 -105 -68t-54 -59q9 0 54 8t73 9q36 1 91.5 -11t76.5 -12q26 0 53.5 14.5t75.5 53.5q8 -26 -19.5 -65.5t-76.5 -70t-95 -30.5 q-37 0 -91.5 12t-78.5 12q-47 0 -78 -3t-41 -7t-17 -7t-11 -3t-8 8z" />
<glyph unicode="&#xbe;" horiz-adv-x="1239" d="M53 674q0 53 35.5 94t81.5 41q32 0 57 -25.5t25 -56.5q0 -29 -19.5 -49.5t-48.5 -20.5q-12 0 -25 9.5t-20 25.5q43 12 43 29q0 39 -37 39q-34 0 -55.5 -25.5t-21.5 -64.5q0 -45 31 -74t85 -29q65 0 125.5 51.5t93.5 116.5t33 115q0 32 -25 53t-61 21q-22 0 -49 -16 l-27 -15q-5 0 -11.5 2.5t-6.5 5.5l324 225q-107 31 -152 29q-26 -1 -52.5 -8t-57.5 -20t-37 -15q3 5 8 13.5t23.5 30t38.5 38t53 30t67 13.5q23 0 84 -14.5t107 -14.5q43 0 102 29l-375 -266q53 -6 98 -48t45 -120q0 -109 -98 -196t-221 -87q-67 0 -113.5 45.5t-46.5 108.5z M145 -78q0 71 144 309q182 294 353 517t505 600l35 -5q-163 -193 -484 -661t-374 -608q-19 -50 -36 -69t-50 -25q-15 -3 -23 -3q-11 0 -18 -8.5t-14 -24.5t-11 -22q-8 -12 -16 -12q-7 0 -9 2t-2 10zM545 225q0 23 55 73t145.5 124t139.5 125l155 168l70 -4l33 30 q2 -16 -2 -26q-4 -11 -10.5 -22t-15 -21t-15.5 -17.5t-17.5 -17t-15.5 -13.5l-15 -12l-10 -8q-69 -54 -199 -141.5t-196.5 -141t-66.5 -85.5q0 -15 38.5 -24.5t81.5 -6.5l91 6q2 2 13.5 20t33.5 49.5t51 71.5t73 94.5t93 108.5q1 1 5.5 6.5t8 8.5t9 6.5t9.5 3.5 q2 0 -50 -90.5t-105 -181.5l-53 -91l157 12q-6 -11 -13.5 -28.5t-14.5 -28.5q-20 0 -74 3t-68 3q-6 -12 -27 -63t-38 -83t-27 -32q-9 0 -24 3t-26 6l-11 3q-29 -39 -45 -45q4 33 25.5 78t50 90.5t28.5 46.5l-125 4q-24 1 -39 2.5t-31 5.5t-24 11.5t-8 19.5z" />
<glyph unicode="&#xbf;" horiz-adv-x="1069" d="M23 -131q0 103 93 219t228 180l426 211q24 12 45 41.5t21 52.5q0 28 -21 45t-57 17q-24 0 -51 -8l-23 14q48 12 94 16q36 0 61 -24t25 -60q0 -29 -16.5 -59.5t-42.5 -50.5q-23 -18 -303 -195q-59 -36 -170 -139q-85 -82 -122.5 -144t-37.5 -122q0 -82 62 -134.5 t157 -52.5q101 0 197 52q104 59 177 153t73 172q0 44 -28.5 72.5t-70.5 28.5q-48 0 -112 -37l-21 6q42 31 69 42t68 11q50 0 83.5 -34t33.5 -87q0 -110 -76 -213.5t-200 -167t-256 -63.5q-127 0 -216 75.5t-89 182.5zM831 899q0 46 37 84.5t82 38.5q38 0 62 -28.5t24 -73.5 q0 -46 -36.5 -84.5t-81.5 -38.5q-38 0 -62.5 29t-24.5 73z" />
<glyph unicode="&#xc0;" d="M-16 365q0 331 200 534t527 203q46 0 118 -25v-24q-71 26 -118 26q-166 0 -301.5 -58t-222.5 -156.5t-134 -227t-47 -272.5q0 -208 103 -377.5t285.5 -266t408.5 -96.5q95 0 207 26.5t204 64.5t170.5 76t123.5 64l44 27l-73 66q-4 -1 -11.5 -2.5t-29.5 -4t-41.5 -3.5 t-44 1.5t-41.5 9t-29 20.5t-12 34q0 27 22 36t54 3t63.5 -15.5t53.5 -19.5l22 -10q18 0 85 60t75 81q1 3 24 55.5t43.5 103t44.5 116t38.5 124t14.5 97.5q-97 -19 -249 -19q-15 -21 -56.5 -86.5t-77.5 -118.5t-91 -126.5t-111.5 -129.5t-122.5 -107t-141 -79t-150 -28 q-153 0 -237.5 74.5t-84.5 191.5q0 84 41.5 164t112 141t173 98t216.5 37h510q62 133 160 258q84 106 176 190t163.5 129.5t131 75.5t91.5 39l32 9q8 0 14 -10.5t6 -22.5q0 -14 -14.5 -31.5t-38 -39t-52.5 -50.5t-59.5 -73.5t-57.5 -100t-47 -138t-28 -180.5q8 3 22.5 8.5 t56 26t79 45.5t83.5 67.5t79 91t55.5 117t22.5 144.5q0 144 -89.5 264t-244.5 189t-340 69q-147 0 -279.5 -49t-221.5 -126t-141 -171t-52 -184q0 -84 22 -153.5t53.5 -108.5t63.5 -66t54 -36l22 -9l-7 -26q-10 3 -26 10t-56.5 37.5t-72 71t-57 115t-25.5 165.5q0 95 55 194 t148 180t231 133t289 52q193 0 354.5 -73t254.5 -200t93 -278q0 -81 -23.5 -155t-61.5 -126.5t-84 -97t-92 -72.5t-84 -48t-62 -29l-23 -8q-14 -119 -20 -146q-7 -29 -26.5 -74t-59 -110.5t-90 -129.5t-127.5 -131.5t-164 -115.5q50 -46 61 -57q150 93 226 138.5t148 86 t113.5 53.5t79 20t87.5 7q115 0 194.5 -69.5t79.5 -168.5q0 -82 -59.5 -155t-145.5 -114.5t-170 -43.5q-56 -1 -112.5 6.5t-101.5 19t-91 30t-78 34.5t-67 37.5t-53 34.5t-40.5 30t-25.5 19q-1 -1 -36.5 -21.5t-74 -41t-98 -50t-124 -54t-136.5 -47t-150.5 -35.5t-150.5 -13 q-233 0 -420.5 98t-293 272t-105.5 390zM586 207q0 -238 225 -238q47 0 95 14t90 35t87.5 56.5t81 68.5t76.5 80.5t69 84t64 87t55.5 81t49 75.5t39.5 61h-412q-138 0 -259 -57t-191 -150.5t-70 -197.5zM1313 -2q0 -23 28 -27.5t56 2.5l28 7q-7 4 -18.5 9.5t-36 15.5t-41 9 t-16.5 -16zM1583 647q33 0 109 5.5t120 13.5q14 89 59 184t97 165.5t101.5 129t76 89t17.5 30.5q-39 0 -158 -93t-211 -198q-90 -102 -143.5 -193t-67.5 -133zM1610 -117q9 -8 25.5 -21.5t71 -47.5t112.5 -60t146.5 -47.5t176.5 -21.5q80 0 160.5 39.5t133 106t52.5 136.5 q0 91 -69.5 151t-173.5 60q-109 0 -197.5 -40.5t-354.5 -203.5q-54 -33 -83 -51zM1911 1597q0 10 10 16.5t21 6.5q34 0 80.5 -26.5t123 -78t140.5 -85.5v-15q-66 34 -168 68.5t-154.5 58.5t-52.5 55z" />
<glyph unicode="&#xc1;" d="M-16 365q0 331 200 534t527 203q46 0 118 -25v-24q-71 26 -118 26q-166 0 -301.5 -58t-222.5 -156.5t-134 -227t-47 -272.5q0 -208 103 -377.5t285.5 -266t408.5 -96.5q95 0 207 26.5t204 64.5t170.5 76t123.5 64l44 27l-73 66q-4 -1 -11.5 -2.5t-29.5 -4t-41.5 -3.5 t-44 1.5t-41.5 9t-29 20.5t-12 34q0 27 22 36t54 3t63.5 -15.5t53.5 -19.5l22 -10q18 0 85 60t75 81q1 3 24 55.5t43.5 103t44.5 116t38.5 124t14.5 97.5q-97 -19 -249 -19q-15 -21 -56.5 -86.5t-77.5 -118.5t-91 -126.5t-111.5 -129.5t-122.5 -107t-141 -79t-150 -28 q-153 0 -237.5 74.5t-84.5 191.5q0 84 41.5 164t112 141t173 98t216.5 37h510q62 133 160 258q84 106 176 190t163.5 129.5t131 75.5t91.5 39l32 9q8 0 14 -10.5t6 -22.5q0 -14 -14.5 -31.5t-38 -39t-52.5 -50.5t-59.5 -73.5t-57.5 -100t-47 -138t-28 -180.5q8 3 22.5 8.5 t56 26t79 45.5t83.5 67.5t79 91t55.5 117t22.5 144.5q0 144 -89.5 264t-244.5 189t-340 69q-147 0 -279.5 -49t-221.5 -126t-141 -171t-52 -184q0 -84 22 -153.5t53.5 -108.5t63.5 -66t54 -36l22 -9l-7 -26q-10 3 -26 10t-56.5 37.5t-72 71t-57 115t-25.5 165.5q0 95 55 194 t148 180t231 133t289 52q193 0 354.5 -73t254.5 -200t93 -278q0 -81 -23.5 -155t-61.5 -126.5t-84 -97t-92 -72.5t-84 -48t-62 -29l-23 -8q-14 -119 -20 -146q-7 -29 -26.5 -74t-59 -110.5t-90 -129.5t-127.5 -131.5t-164 -115.5q50 -46 61 -57q150 93 226 138.5t148 86 t113.5 53.5t79 20t87.5 7q115 0 194.5 -69.5t79.5 -168.5q0 -82 -59.5 -155t-145.5 -114.5t-170 -43.5q-56 -1 -112.5 6.5t-101.5 19t-91 30t-78 34.5t-67 37.5t-53 34.5t-40.5 30t-25.5 19q-1 -1 -36.5 -21.5t-74 -41t-98 -50t-124 -54t-136.5 -47t-150.5 -35.5t-150.5 -13 q-233 0 -420.5 98t-293 272t-105.5 390zM586 207q0 -238 225 -238q47 0 95 14t90 35t87.5 56.5t81 68.5t76.5 80.5t69 84t64 87t55.5 81t49 75.5t39.5 61h-412q-138 0 -259 -57t-191 -150.5t-70 -197.5zM1313 -2q0 -23 28 -27.5t56 2.5l28 7q-7 4 -18.5 9.5t-36 15.5t-41 9 t-16.5 -16zM1583 647q33 0 109 5.5t120 13.5q14 89 59 184t97 165.5t101.5 129t76 89t17.5 30.5q-39 0 -158 -93t-211 -198q-90 -102 -143.5 -193t-67.5 -133zM1610 -117q9 -8 25.5 -21.5t71 -47.5t112.5 -60t146.5 -47.5t176.5 -21.5q80 0 160.5 39.5t133 106t52.5 136.5 q0 91 -69.5 151t-173.5 60q-109 0 -197.5 -40.5t-354.5 -203.5q-54 -33 -83 -51zM1829 1368v14q65 34 141 85.5t122.5 78.5t80.5 27q11 0 21 -6.5t10 -16.5q0 -31 -52.5 -55t-154.5 -58.5t-168 -68.5z" />
<glyph unicode="&#xc2;" d="M-16 365q0 331 200 534t527 203q46 0 118 -25v-24q-71 26 -118 26q-166 0 -301.5 -58t-222.5 -156.5t-134 -227t-47 -272.5q0 -208 103 -377.5t285.5 -266t408.5 -96.5q95 0 207 26.5t204 64.5t170.5 76t123.5 64l44 27l-73 66q-4 -1 -11.5 -2.5t-29.5 -4t-41.5 -3.5 t-44 1.5t-41.5 9t-29 20.5t-12 34q0 27 22 36t54 3t63.5 -15.5t53.5 -19.5l22 -10q18 0 85 60t75 81q1 3 24 55.5t43.5 103t44.5 116t38.5 124t14.5 97.5q-97 -19 -249 -19q-15 -21 -56.5 -86.5t-77.5 -118.5t-91 -126.5t-111.5 -129.5t-122.5 -107t-141 -79t-150 -28 q-153 0 -237.5 74.5t-84.5 191.5q0 84 41.5 164t112 141t173 98t216.5 37h510q62 133 160 258q84 106 176 190t163.5 129.5t131 75.5t91.5 39l32 9q8 0 14 -10.5t6 -22.5q0 -14 -14.5 -31.5t-38 -39t-52.5 -50.5t-59.5 -73.5t-57.5 -100t-47 -138t-28 -180.5q8 3 22.5 8.5 t56 26t79 45.5t83.5 67.5t79 91t55.5 117t22.5 144.5q0 144 -89.5 264t-244.5 189t-340 69q-147 0 -279.5 -49t-221.5 -126t-141 -171t-52 -184q0 -84 22 -153.5t53.5 -108.5t63.5 -66t54 -36l22 -9l-7 -26q-10 3 -26 10t-56.5 37.5t-72 71t-57 115t-25.5 165.5q0 95 55 194 t148 180t231 133t289 52q193 0 354.5 -73t254.5 -200t93 -278q0 -81 -23.5 -155t-61.5 -126.5t-84 -97t-92 -72.5t-84 -48t-62 -29l-23 -8q-14 -119 -20 -146q-7 -29 -26.5 -74t-59 -110.5t-90 -129.5t-127.5 -131.5t-164 -115.5q50 -46 61 -57q150 93 226 138.5t148 86 t113.5 53.5t79 20t87.5 7q115 0 194.5 -69.5t79.5 -168.5q0 -82 -59.5 -155t-145.5 -114.5t-170 -43.5q-56 -1 -112.5 6.5t-101.5 19t-91 30t-78 34.5t-67 37.5t-53 34.5t-40.5 30t-25.5 19q-1 -1 -36.5 -21.5t-74 -41t-98 -50t-124 -54t-136.5 -47t-150.5 -35.5t-150.5 -13 q-233 0 -420.5 98t-293 272t-105.5 390zM586 207q0 -238 225 -238q47 0 95 14t90 35t87.5 56.5t81 68.5t76.5 80.5t69 84t64 87t55.5 81t49 75.5t39.5 61h-412q-138 0 -259 -57t-191 -150.5t-70 -197.5zM1313 -2q0 -23 28 -27.5t56 2.5l28 7q-7 4 -18.5 9.5t-36 15.5t-41 9 t-16.5 -16zM1583 647q33 0 109 5.5t120 13.5q14 89 59 184t97 165.5t101.5 129t76 89t17.5 30.5q-39 0 -158 -93t-211 -198q-90 -102 -143.5 -193t-67.5 -133zM1610 -117q9 -8 25.5 -21.5t71 -47.5t112.5 -60t146.5 -47.5t176.5 -21.5q80 0 160.5 39.5t133 106t52.5 136.5 q0 91 -69.5 151t-173.5 60q-109 0 -197.5 -40.5t-354.5 -203.5q-54 -33 -83 -51zM1912 1371q1 5 7 11q33 26 120 83t115 79q19 16 35 0q133 -143 148 -158q10 -10 1 -11q-5 0 -14 5q-90 62 -151 107q-27 -17 -123.5 -59.5t-120.5 -55.5q-14 -8 -17 -1z" />
<glyph unicode="&#xc3;" d="M-16 365q0 331 200 534t527 203q46 0 118 -25v-24q-71 26 -118 26q-166 0 -301.5 -58t-222.5 -156.5t-134 -227t-47 -272.5q0 -208 103 -377.5t285.5 -266t408.5 -96.5q95 0 207 26.5t204 64.5t170.5 76t123.5 64l44 27l-73 66q-4 -1 -11.5 -2.5t-29.5 -4t-41.5 -3.5 t-44 1.5t-41.5 9t-29 20.5t-12 34q0 27 22 36t54 3t63.5 -15.5t53.5 -19.5l22 -10q18 0 85 60t75 81q1 3 24 55.5t43.5 103t44.5 116t38.5 124t14.5 97.5q-97 -19 -249 -19q-15 -21 -56.5 -86.5t-77.5 -118.5t-91 -126.5t-111.5 -129.5t-122.5 -107t-141 -79t-150 -28 q-153 0 -237.5 74.5t-84.5 191.5q0 84 41.5 164t112 141t173 98t216.5 37h510q62 133 160 258q84 106 176 190t163.5 129.5t131 75.5t91.5 39l32 9q8 0 14 -10.5t6 -22.5q0 -14 -14.5 -31.5t-38 -39t-52.5 -50.5t-59.5 -73.5t-57.5 -100t-47 -138t-28 -180.5q8 3 22.5 8.5 t56 26t79 45.5t83.5 67.5t79 91t55.5 117t22.5 144.5q0 144 -89.5 264t-244.5 189t-340 69q-147 0 -279.5 -49t-221.5 -126t-141 -171t-52 -184q0 -84 22 -153.5t53.5 -108.5t63.5 -66t54 -36l22 -9l-7 -26q-10 3 -26 10t-56.5 37.5t-72 71t-57 115t-25.5 165.5q0 95 55 194 t148 180t231 133t289 52q193 0 354.5 -73t254.5 -200t93 -278q0 -81 -23.5 -155t-61.5 -126.5t-84 -97t-92 -72.5t-84 -48t-62 -29l-23 -8q-14 -119 -20 -146q-7 -29 -26.5 -74t-59 -110.5t-90 -129.5t-127.5 -131.5t-164 -115.5q50 -46 61 -57q150 93 226 138.5t148 86 t113.5 53.5t79 20t87.5 7q115 0 194.5 -69.5t79.5 -168.5q0 -82 -59.5 -155t-145.5 -114.5t-170 -43.5q-56 -1 -112.5 6.5t-101.5 19t-91 30t-78 34.5t-67 37.5t-53 34.5t-40.5 30t-25.5 19q-1 -1 -36.5 -21.5t-74 -41t-98 -50t-124 -54t-136.5 -47t-150.5 -35.5t-150.5 -13 q-233 0 -420.5 98t-293 272t-105.5 390zM586 207q0 -238 225 -238q47 0 95 14t90 35t87.5 56.5t81 68.5t76.5 80.5t69 84t64 87t55.5 81t49 75.5t39.5 61h-412q-138 0 -259 -57t-191 -150.5t-70 -197.5zM1313 -2q0 -23 28 -27.5t56 2.5l28 7q-7 4 -18.5 9.5t-36 15.5t-41 9 t-16.5 -16zM1583 647q33 0 109 5.5t120 13.5q14 89 59 184t97 165.5t101.5 129t76 89t17.5 30.5q-39 0 -158 -93t-211 -198q-90 -102 -143.5 -193t-67.5 -133zM1610 -117q9 -8 25.5 -21.5t71 -47.5t112.5 -60t146.5 -47.5t176.5 -21.5q80 0 160.5 39.5t133 106t52.5 136.5 q0 91 -69.5 151t-173.5 60q-109 0 -197.5 -40.5t-354.5 -203.5q-54 -33 -83 -51zM1772 1464q24 50 68.5 75.5t98.5 25.5q20 0 66.5 -6.5t75.5 -6.5q21 0 38 2.5t39.5 8.5t34.5 8q-17 -50 -53.5 -77.5t-83.5 -27.5q-35 0 -88.5 8.5t-83.5 8.5q-18 0 -35 -2.5t-41.5 -8.5 t-35.5 -8z" />
<glyph unicode="&#xc4;" d="M-16 365q0 331 200 534t527 203q46 0 118 -25v-24q-71 26 -118 26q-166 0 -301.5 -58t-222.5 -156.5t-134 -227t-47 -272.5q0 -208 103 -377.5t285.5 -266t408.5 -96.5q95 0 207 26.5t204 64.5t170.5 76t123.5 64l44 27l-73 66q-4 -1 -11.5 -2.5t-29.5 -4t-41.5 -3.5 t-44 1.5t-41.5 9t-29 20.5t-12 34q0 27 22 36t54 3t63.5 -15.5t53.5 -19.5l22 -10q18 0 85 60t75 81q1 3 24 55.5t43.5 103t44.5 116t38.5 124t14.5 97.5q-97 -19 -249 -19q-15 -21 -56.5 -86.5t-77.5 -118.5t-91 -126.5t-111.5 -129.5t-122.5 -107t-141 -79t-150 -28 q-153 0 -237.5 74.5t-84.5 191.5q0 84 41.5 164t112 141t173 98t216.5 37h510q62 133 160 258q84 106 176 190t163.5 129.5t131 75.5t91.5 39l32 9q8 0 14 -10.5t6 -22.5q0 -14 -14.5 -31.5t-38 -39t-52.5 -50.5t-59.5 -73.5t-57.5 -100t-47 -138t-28 -180.5q8 3 22.5 8.5 t56 26t79 45.5t83.5 67.5t79 91t55.5 117t22.5 144.5q0 144 -89.5 264t-244.5 189t-340 69q-147 0 -279.5 -49t-221.5 -126t-141 -171t-52 -184q0 -84 22 -153.5t53.5 -108.5t63.5 -66t54 -36l22 -9l-7 -26q-10 3 -26 10t-56.5 37.5t-72 71t-57 115t-25.5 165.5q0 95 55 194 t148 180t231 133t289 52q193 0 354.5 -73t254.5 -200t93 -278q0 -81 -23.5 -155t-61.5 -126.5t-84 -97t-92 -72.5t-84 -48t-62 -29l-23 -8q-14 -119 -20 -146q-7 -29 -26.5 -74t-59 -110.5t-90 -129.5t-127.5 -131.5t-164 -115.5q50 -46 61 -57q150 93 226 138.5t148 86 t113.5 53.5t79 20t87.5 7q115 0 194.5 -69.5t79.5 -168.5q0 -82 -59.5 -155t-145.5 -114.5t-170 -43.5q-56 -1 -112.5 6.5t-101.5 19t-91 30t-78 34.5t-67 37.5t-53 34.5t-40.5 30t-25.5 19q-1 -1 -36.5 -21.5t-74 -41t-98 -50t-124 -54t-136.5 -47t-150.5 -35.5t-150.5 -13 q-233 0 -420.5 98t-293 272t-105.5 390zM586 207q0 -238 225 -238q47 0 95 14t90 35t87.5 56.5t81 68.5t76.5 80.5t69 84t64 87t55.5 81t49 75.5t39.5 61h-412q-138 0 -259 -57t-191 -150.5t-70 -197.5zM1313 -2q0 -23 28 -27.5t56 2.5l28 7q-7 4 -18.5 9.5t-36 15.5t-41 9 t-16.5 -16zM1583 647q33 0 109 5.5t120 13.5q14 89 59 184t97 165.5t101.5 129t76 89t17.5 30.5q-39 0 -158 -93t-211 -198q-90 -102 -143.5 -193t-67.5 -133zM1610 -117q9 -8 25.5 -21.5t71 -47.5t112.5 -60t146.5 -47.5t176.5 -21.5q80 0 160.5 39.5t133 106t52.5 136.5 q0 91 -69.5 151t-173.5 60q-109 0 -197.5 -40.5t-354.5 -203.5q-54 -33 -83 -51zM1868 1473q4 25 26.5 43t47.5 18q24 0 39.5 -18.5t9.5 -42.5q-4 -23 -27.5 -41.5t-46.5 -18.5q-27 0 -40.5 18t-8.5 42zM2124 1473q4 25 26.5 43t47.5 18t40 -18t9 -43q-5 -23 -27 -41.5 t-47 -18.5q-26 0 -40 18t-9 42z" />
<glyph unicode="&#xc5;" d="M-16 365q0 331 200 534t527 203q46 0 118 -25v-24q-71 26 -118 26q-166 0 -301.5 -58t-222.5 -156.5t-134 -227t-47 -272.5q0 -208 103 -377.5t285.5 -266t408.5 -96.5q95 0 207 26.5t204 64.5t170.5 76t123.5 64l44 27l-73 66q-4 -1 -11.5 -2.5t-29.5 -4t-41.5 -3.5 t-44 1.5t-41.5 9t-29 20.5t-12 34q0 27 22 36t54 3t63.5 -15.5t53.5 -19.5l22 -10q18 0 85 60t75 81q1 3 24 55.5t43.5 103t44.5 116t38.5 124t14.5 97.5q-97 -19 -249 -19q-15 -21 -56.5 -86.5t-77.5 -118.5t-91 -126.5t-111.5 -129.5t-122.5 -107t-141 -79t-150 -28 q-153 0 -237.5 74.5t-84.5 191.5q0 84 41.5 164t112 141t173 98t216.5 37h510q62 133 160 258q84 106 176 190t163.5 129.5t131 75.5t91.5 39l32 9q8 0 14 -10.5t6 -22.5q0 -14 -14.5 -31.5t-38 -39t-52.5 -50.5t-59.5 -73.5t-57.5 -100t-47 -138t-28 -180.5q8 3 22.5 8.5 t56 26t79 45.5t83.5 67.5t79 91t55.5 117t22.5 144.5q0 144 -89.5 264t-244.5 189t-340 69q-147 0 -279.5 -49t-221.5 -126t-141 -171t-52 -184q0 -84 22 -153.5t53.5 -108.5t63.5 -66t54 -36l22 -9l-7 -26q-10 3 -26 10t-56.5 37.5t-72 71t-57 115t-25.5 165.5q0 95 55 194 t148 180t231 133t289 52q193 0 354.5 -73t254.5 -200t93 -278q0 -81 -23.5 -155t-61.5 -126.5t-84 -97t-92 -72.5t-84 -48t-62 -29l-23 -8q-14 -119 -20 -146q-7 -29 -26.5 -74t-59 -110.5t-90 -129.5t-127.5 -131.5t-164 -115.5q50 -46 61 -57q150 93 226 138.5t148 86 t113.5 53.5t79 20t87.5 7q115 0 194.5 -69.5t79.5 -168.5q0 -82 -59.5 -155t-145.5 -114.5t-170 -43.5q-56 -1 -112.5 6.5t-101.5 19t-91 30t-78 34.5t-67 37.5t-53 34.5t-40.5 30t-25.5 19q-1 -1 -36.5 -21.5t-74 -41t-98 -50t-124 -54t-136.5 -47t-150.5 -35.5t-150.5 -13 q-233 0 -420.5 98t-293 272t-105.5 390zM586 207q0 -238 225 -238q47 0 95 14t90 35t87.5 56.5t81 68.5t76.5 80.5t69 84t64 87t55.5 81t49 75.5t39.5 61h-412q-138 0 -259 -57t-191 -150.5t-70 -197.5zM1313 -2q0 -23 28 -27.5t56 2.5l28 7q-7 4 -18.5 9.5t-36 15.5t-41 9 t-16.5 -16zM1583 647q33 0 109 5.5t120 13.5q14 89 59 184t97 165.5t101.5 129t76 89t17.5 30.5q-39 0 -158 -93t-211 -198q-90 -102 -143.5 -193t-67.5 -133zM1610 -117q9 -8 25.5 -21.5t71 -47.5t112.5 -60t146.5 -47.5t176.5 -21.5q80 0 160.5 39.5t133 106t52.5 136.5 q0 91 -69.5 151t-173.5 60q-109 0 -197.5 -40.5t-354.5 -203.5q-54 -33 -83 -51zM1989 1464q8 49 43 83t86 34q45 0 64 -33.5t9 -83.5q-9 -52 -43.5 -82t-87.5 -30q-87 0 -71 112zM2028 1464q-15 -78 43 -78q32 0 55.5 20.5t32.5 57.5q9 38 -6.5 60t-43.5 22q-35 0 -53 -20 t-28 -62z" />
<glyph unicode="&#xc6;" horiz-adv-x="3020" d="M-16 389q0 331 200 534t527 203q49 0 118 -24v-25q-74 27 -118 27q-166 0 -301.5 -58t-222.5 -157t-134 -227.5t-47 -272.5q0 -208 103 -377.5t285.5 -265.5t408.5 -96q95 0 207 26.5t204 64.5t170.5 76t123.5 65l44 26l-73 65q-8 -2 -22.5 -4.5t-50.5 -4.5t-63.5 1.5 t-50 19.5t-22.5 44q0 27 22 36t54 3t63.5 -15.5t53.5 -19.5l22 -10q18 0 85 60t75 81q1 3 24 55t43.5 103t44.5 116t38.5 123.5t14.5 97.5q-91 -18 -249 -18q-15 -21 -49 -74t-64 -99.5t-76.5 -110t-90 -115t-101 -105t-113.5 -90t-123 -59.5t-133 -23q-153 0 -237.5 74.5 t-84.5 191.5q0 113 69.5 214t195.5 164t278 63h510q62 133 160 258q84 106 176 190t163.5 129t131 75t91.5 39l32 9q8 0 14 -10.5t6 -22.5q0 -18 -25.5 -43t-64 -63t-79 -92t-75.5 -151t-49 -220q128 75 308 64q-30 43 -51 101t-21 99q0 138 112 232t269 94 q113 0 193.5 -73.5t80.5 -172.5q0 -57 -39.5 -106.5t-103.5 -81.5l-14 16q59 24 95 68.5t36 101.5q0 71 -55 122.5t-130 51.5q-68 -1 -123 -27.5t-89 -71t-52 -99t-18 -113.5v4q0 -49 12.5 -108.5t32.5 -92.5q6 -8 42.5 -26.5t37.5 -40.5q0 -22 -25 -25q-19 -3 -39.5 9 t-31.5 25l-11 13q-37 22 -83.5 23.5t-93 -14.5t-91.5 -50t-79.5 -79t-55.5 -106.5t-21 -127.5q0 -98 35 -182q86 36 193 36q15 0 43 -4q-19 43 -19 90q0 82 52 164t137.5 135.5t173.5 53.5q92 0 150.5 -69t58.5 -177q0 -153 -92 -278t-232 -179q-9 -77 -69 -144t-142 -104.5 t-162 -39.5q-56 -1 -112.5 6.5t-101.5 18.5t-91 29.5t-78 34.5t-67.5 38t-53 34.5t-40.5 29.5t-25 19q-1 -1 -36.5 -21.5t-74 -41t-98 -50t-124 -54t-136.5 -47t-150.5 -35.5t-150.5 -13q-233 0 -420.5 98t-293 272t-105.5 390zM586 233q0 -237 225 -237q47 0 95 14t90 35 t87.5 56.5t81 68.5t76.5 80.5t69 84t64 87t55.5 81t49 75.5t39.5 61h-412q-104 0 -200.5 -34t-166 -89.5t-111.5 -130t-42 -152.5zM1313 25q0 -23 28 -27.5t56 2.5l28 6q-7 4 -18.5 9.5t-36 15.5t-41 9.5t-16.5 -15.5zM1526 -14q37 -34 61 -58l318 193q-47 63 -68 135 q-133 -172 -311 -270zM1583 674q130 0 229 18q14 89 59 184t97 165.5t101.5 129t76 89t17.5 30.5q-39 0 -158 -93t-211 -198q-90 -102 -143.5 -192.5t-67.5 -132.5zM1610 -90q9 -8 25.5 -21.5t71 -48t112.5 -60.5t146.5 -47.5t176.5 -21.5q114 0 218.5 75.5t123.5 174.5 q-71 -22 -139 -22q-280 0 -422 161v-2q-30 -17 -313 -188zM2062 170q44 -89 119 -142t164 -53q69 0 143 23h-2q-3 76 -55 131q-78 3 -129 70q-27 6 -59 6q-99 0 -181 -35zM2294 317q0 -52 26 -96l2 -4q71 -18 121 -65q57 1 99 31t62.5 69t32.5 92t14.5 84t2.5 61h25 q3 -45 -4 -96.5t-26.5 -112t-66 -104t-114.5 -51.5q44 -53 47 -121q129 52 211 167t82 253q0 97 -49.5 157t-130.5 60q-82 0 -160.5 -50.5t-126 -126t-47.5 -147.5z" />
<glyph unicode="&#xc7;" horiz-adv-x="1910" d="M4 182q0 140 45.5 276t130 250.5t197 202t255.5 136.5t296 49q83 0 183.5 -9.5t159 -17.5t60.5 -6q14 8 40 22.5t103.5 50.5t153.5 63.5t178.5 50t190.5 22.5q113 0 160 -33.5t47 -85.5q0 -74 -86 -130t-244 -56q-52 0 -150 9.5t-170 19.5l-73 10q-155 -127 -264 -258 q-116 -138 -189 -289.5t-76 -259.5q0 -78 45 -123q-7 47 6 114t42 140.5t78 145.5t109 130t140.5 93.5t167.5 35.5q75 0 118.5 -50t43.5 -138q0 -81 -30 -162.5t-79.5 -149t-113.5 -125t-130 -95t-132 -55t-117 -7.5q5 -7 15 -17.5t44 -28.5t70 -18q59 0 123.5 29.5 t114.5 71.5t92 84.5t65 71.5l23 30l16 -18q-8 -12 -23 -32t-62.5 -71.5t-95.5 -90.5t-118 -71t-135 -32q-90 0 -166 76l-23 -37q32 -6 53 -28t21 -54q0 -38 -37 -66t-82 -28q-63 0 -123 32q-19 10 -10 21q10 12 29 2q8 -5 30.5 -9t48.5 -4.5t46 11.5t20 37q0 24 -36.5 27.5 t-65.5 -3.5l16 53q29 13 60 13l30 57l-8 10q-8 3 -21 10t-46.5 35.5t-59 65.5t-46.5 104.5t-21 147.5q0 78 23.5 157.5t59.5 143.5t84 125t93.5 105.5t91 82.5t73 57t44.5 29q0 3 -64.5 11.5t-157 16t-155.5 7.5q-186 0 -355.5 -77t-288 -202t-188 -286t-69.5 -326 q0 -140 44.5 -265t124.5 -219t201 -149t265 -55q93 0 207.5 32.5t224.5 79t223 92.5t239 78.5t236 32.5q155 0 285 -41.5t206 -116.5t76 -167l-2 4q0 -34 -9 -54t-36 -57q-4 4 -10 13q22 40 26.5 54.5t4.5 43.5q0 77 -74 147t-200.5 113t-268.5 43q-113 0 -237 -32.5 t-232.5 -78.5t-216 -92.5t-224 -79t-220.5 -32.5q-149 0 -273.5 55.5t-208 152t-130 226t-46.5 276.5zM1032 119q0 -33 4 -50.5t19 -56.5q21 -15 37.5 -21t22 -6.5t24.5 -0.5q68 0 142 42t135.5 108.5t111.5 143.5t78 151.5t28 127.5q0 137 -135 137q-78 0 -164 -57 t-151.5 -141.5t-108.5 -187t-43 -189.5zM1526 1022q257 -37 350 -37q52 0 100.5 7t98 24t79 51t29.5 82q0 96 -184 96q-52 0 -119.5 -23t-127 -55.5t-112 -65.5t-83.5 -56z" />
<glyph unicode="&#xc8;" horiz-adv-x="1992" d="M-2 602q0 198 222 333.5t579 135.5q228 0 391 -37q-3 138 108 232t271 92q113 -1 193.5 -74t80.5 -172q0 -87 -82 -153t-192 -66q-39 0 -78 7.5t-65.5 16t-71.5 25.5q3 -102 43 -168h-2q6 -8 42.5 -26.5t37.5 -40.5q0 -22 -25 -25q-19 -3 -39.5 9t-31.5 25l-11 13 q-37 22 -83.5 23.5t-93 -14.5t-91.5 -50t-79.5 -79t-55.5 -106.5t-21 -127.5q0 -166 96.5 -285t233.5 -119q124 0 231.5 62t170.5 166.5t63 224.5q0 97 -49.5 157t-130.5 60q-82 0 -160.5 -50.5t-126 -126t-47.5 -147.5q0 -70 41.5 -116.5t101.5 -46.5q42 0 76.5 15.5 t56 39.5t38 57.5t24.5 64t13 66t6 55.5t1 40h25q2 -29 -0.5 -63t-10 -77t-25 -82t-43 -72t-67.5 -53t-94 -20q-73 0 -122.5 56t-49.5 136q0 82 52 164t137.5 135.5t173.5 53.5q92 0 150 -69t58 -177q0 -132 -69 -245.5t-182.5 -179t-241.5 -65.5q-125 0 -225.5 34.5t-165 96 t-99 144.5t-34.5 180q0 94 33 176.5t94.5 145.5t160 96t219.5 24q-54 79 -67 166q-164 47 -391 47q-138 0 -261 -23t-215.5 -64t-160 -96t-102.5 -121t-35 -136q0 -12 12.5 -59t17.5 -53l-24 -17q-33 59 -33 127zM1346 1573q0 10 9.5 16t20.5 6q34 0 80.5 -26.5t123 -78 t140.5 -85.5v-14q-66 34 -168 68.5t-154 58.5t-52 55zM1350 975q42 -20 66.5 -29.5t65 -18.5t83.5 -9q92 0 171 56t79 138q0 71 -55 122.5t-130 51.5q-68 -1 -121.5 -28t-86 -72t-50.5 -98.5t-20 -112.5h-2z" />
<glyph unicode="&#xc9;" horiz-adv-x="1992" d="M-2 602q0 198 222 333.5t579 135.5q228 0 391 -37q-3 138 108 232t271 92q113 -1 193.5 -74t80.5 -172q0 -87 -82 -153t-192 -66q-39 0 -78 7.5t-65.5 16t-71.5 25.5q3 -102 43 -168h-2q6 -8 42.5 -26.5t37.5 -40.5q0 -22 -25 -25q-19 -3 -39.5 9t-31.5 25l-11 13 q-37 22 -83.5 23.5t-93 -14.5t-91.5 -50t-79.5 -79t-55.5 -106.5t-21 -127.5q0 -166 96.5 -285t233.5 -119q124 0 231.5 62t170.5 166.5t63 224.5q0 97 -49.5 157t-130.5 60q-82 0 -160.5 -50.5t-126 -126t-47.5 -147.5q0 -70 41.5 -116.5t101.5 -46.5q42 0 76.5 15.5 t56 39.5t38 57.5t24.5 64t13 66t6 55.5t1 40h25q2 -29 -0.5 -63t-10 -77t-25 -82t-43 -72t-67.5 -53t-94 -20q-73 0 -122.5 56t-49.5 136q0 82 52 164t137.5 135.5t173.5 53.5q92 0 150 -69t58 -177q0 -132 -69 -245.5t-182.5 -179t-241.5 -65.5q-125 0 -225.5 34.5t-165 96 t-99 144.5t-34.5 180q0 94 33 176.5t94.5 145.5t160 96t219.5 24q-54 79 -67 166q-164 47 -391 47q-138 0 -261 -23t-215.5 -64t-160 -96t-102.5 -121t-35 -136q0 -12 12.5 -59t17.5 -53l-24 -17q-33 59 -33 127zM1350 975q42 -20 66.5 -29.5t65 -18.5t83.5 -9q92 0 171 56 t79 138q0 71 -55 122.5t-130 51.5q-68 -1 -121.5 -28t-86 -72t-50.5 -98.5t-20 -112.5h-2zM1382 1393v14q64 34 140.5 85.5t123 78t80.5 26.5q12 0 21.5 -6t9.5 -16q0 -31 -52.5 -55t-154.5 -58.5t-168 -68.5z" />
<glyph unicode="&#xca;" horiz-adv-x="1992" d="M-2 602q0 198 222 333.5t579 135.5q228 0 391 -37q-3 138 108 232t271 92q113 -1 193.5 -74t80.5 -172q0 -87 -82 -153t-192 -66q-39 0 -78 7.5t-65.5 16t-71.5 25.5q3 -102 43 -168h-2q6 -8 42.5 -26.5t37.5 -40.5q0 -22 -25 -25q-19 -3 -39.5 9t-31.5 25l-11 13 q-37 22 -83.5 23.5t-93 -14.5t-91.5 -50t-79.5 -79t-55.5 -106.5t-21 -127.5q0 -166 96.5 -285t233.5 -119q124 0 231.5 62t170.5 166.5t63 224.5q0 97 -49.5 157t-130.5 60q-82 0 -160.5 -50.5t-126 -126t-47.5 -147.5q0 -70 41.5 -116.5t101.5 -46.5q42 0 76.5 15.5 t56 39.5t38 57.5t24.5 64t13 66t6 55.5t1 40h25q2 -29 -0.5 -63t-10 -77t-25 -82t-43 -72t-67.5 -53t-94 -20q-73 0 -122.5 56t-49.5 136q0 82 52 164t137.5 135.5t173.5 53.5q92 0 150 -69t58 -177q0 -132 -69 -245.5t-182.5 -179t-241.5 -65.5q-125 0 -225.5 34.5t-165 96 t-99 144.5t-34.5 180q0 94 33 176.5t94.5 145.5t160 96t219.5 24q-54 79 -67 166q-164 47 -391 47q-138 0 -261 -23t-215.5 -64t-160 -96t-102.5 -121t-35 -136q0 -12 12.5 -59t17.5 -53l-24 -17q-33 59 -33 127zM1316 1402q1 5 7 11q33 26 120.5 83t115.5 79q19 15 34 0 q133 -142 148 -158q10 -10 2 -11q-5 0 -14 5q-102 70 -152 107q-27 -17 -123.5 -59.5t-120.5 -55.5q-14 -8 -17 -1zM1350 975q42 -20 66.5 -29.5t65 -18.5t83.5 -9q92 0 171 56t79 138q0 71 -55 122.5t-130 51.5q-68 -1 -121.5 -28t-86 -72t-50.5 -98.5t-20 -112.5h-2z" />
<glyph unicode="&#xcb;" horiz-adv-x="1992" d="M-2 602q0 198 222 333.5t579 135.5q228 0 391 -37q-3 138 108 232t271 92q113 -1 193.5 -74t80.5 -172q0 -87 -82 -153t-192 -66q-39 0 -78 7.5t-65.5 16t-71.5 25.5q3 -102 43 -168h-2q6 -8 42.5 -26.5t37.5 -40.5q0 -22 -25 -25q-19 -3 -39.5 9t-31.5 25l-11 13 q-37 22 -83.5 23.5t-93 -14.5t-91.5 -50t-79.5 -79t-55.5 -106.5t-21 -127.5q0 -166 96.5 -285t233.5 -119q124 0 231.5 62t170.5 166.5t63 224.5q0 97 -49.5 157t-130.5 60q-82 0 -160.5 -50.5t-126 -126t-47.5 -147.5q0 -70 41.5 -116.5t101.5 -46.5q42 0 76.5 15.5 t56 39.5t38 57.5t24.5 64t13 66t6 55.5t1 40h25q2 -29 -0.5 -63t-10 -77t-25 -82t-43 -72t-67.5 -53t-94 -20q-73 0 -122.5 56t-49.5 136q0 82 52 164t137.5 135.5t173.5 53.5q92 0 150 -69t58 -177q0 -132 -69 -245.5t-182.5 -179t-241.5 -65.5q-125 0 -225.5 34.5t-165 96 t-99 144.5t-34.5 180q0 94 33 176.5t94.5 145.5t160 96t219.5 24q-54 79 -67 166q-164 47 -391 47q-138 0 -261 -23t-215.5 -64t-160 -96t-102.5 -121t-35 -136q0 -12 12.5 -59t17.5 -53l-24 -17q-33 59 -33 127zM1350 975q42 -20 66.5 -29.5t65 -18.5t83.5 -9q92 0 171 56 t79 138q0 71 -55 122.5t-130 51.5q-68 -1 -121.5 -28t-86 -72t-50.5 -98.5t-20 -112.5h-2zM1386 1489q4 25 26.5 43t47.5 18q24 0 39.5 -18.5t9.5 -42.5q-4 -23 -27 -41t-46 -18q-27 0 -41 17.5t-9 41.5zM1642 1489q4 25 26.5 43t47.5 18t40 -18t9 -43q-5 -23 -26.5 -41 t-46.5 -18q-26 0 -40.5 17.5t-9.5 41.5z" />
<glyph unicode="&#xcc;" horiz-adv-x="1615" d="M6 750q0 135 54 256t140.5 203.5t197.5 131t223 48.5q54 0 105.5 -11.5t75.5 -23.5l25 -11l-4 -18q-96 45 -205 45q-104 0 -209.5 -46t-190.5 -125.5t-139 -197.5t-54 -251q0 -24 4 -61t8 -62l4 -25q2 10 6.5 26t24 63.5t45 90.5t74 95.5t107 90t147 63.5t190.5 26 q54 0 107.5 -11.5t91 -27.5t67.5 -32.5t45 -27.5l15 -12q25 75 58 122.5t85 92.5q101 95 255.5 145t340.5 50q118 0 234.5 -23t164.5 -49q6 -4 8.5 -10t3.5 -14t3 -13q-141 -3 -246 -37q-90 -29 -169 -92t-131.5 -138t-94 -154.5t-64 -149t-34 -113t-11.5 -55.5 q0 -6 41.5 11.5t95.5 49.5t82 62q63 69 117 235l18 -8q0 -9 -14.5 -51t-44.5 -102t-62 -95q-47 -51 -119.5 -87t-121.5 -46q-96 -282 -276.5 -408t-458.5 -126q-77 0 -155 18t-159 62t-142.5 109t-100.5 168t-39 230q-19 102 -19 220zM47 492q9 -116 49.5 -208.5t98.5 -151 t132.5 -97t147 -54.5t146.5 -16q79 0 188 69t212.5 189.5t156.5 251.5q-60 20 -97 53q-39 -116 -95.5 -198t-127.5 -129t-148 -68t-169 -22q-63 0 -120.5 14t-100 35.5t-81.5 55t-64 62t-50 67.5t-36.5 61t-26 52.5t-15.5 33.5zM49 545l8 -24t25 -58t44 -82.5t66 -87.5 t89.5 -82.5t115.5 -58t144 -23.5q59 0 112 10.5t94.5 27t79 41.5t65 50t52.5 56.5t40.5 57.5t31 56.5t22.5 49.5t15 41t10 26q-70 94 -92 186q-8 32 -12.5 80t-5.5 81l-1 32q-5 5 -14 12.5t-40 27t-65.5 34.5t-88 27.5t-109.5 12.5q-99 0 -183.5 -24.5t-140.5 -57.5 t-103.5 -88t-72 -93t-46.5 -97t-26.5 -75t-11.5 -51q-2 -5 -2 -7zM975 901q6 -105 18 -164q3 -12 6.5 -23t6.5 -20t8.5 -20t8.5 -17.5t10 -18t9.5 -16t10.5 -16.5t10 -16q-2 14 -5 64t-9 75q-21 97 -74 172zM981 928q2 -4 15.5 -22t20.5 -30.5t18.5 -35t19.5 -49t14 -58.5 q5 -27 9 -71.5t6 -75.5l1 -31q68 -49 101 -55q1 2 17 49t30 81.5t40.5 96t59 113t74 110t96.5 111t117 92.5q84 55 176.5 76.5t280.5 30.5q-7 13 -57 31t-139 33t-181 15q-170 0 -317 -46t-254.5 -140.5t-147.5 -224.5zM1440 1573q0 10 9.5 16t20.5 6q34 0 81 -26.5 t123.5 -78t140.5 -85.5v-14q-66 34 -168 68.5t-154.5 58.5t-52.5 55z" />
<glyph unicode="&#xcd;" horiz-adv-x="1615" d="M6 750q0 135 54 256t140.5 203.5t197.5 131t223 48.5q54 0 105.5 -11.5t75.5 -23.5l25 -11l-4 -18q-96 45 -205 45q-104 0 -209.5 -46t-190.5 -125.5t-139 -197.5t-54 -251q0 -24 4 -61t8 -62l4 -25q2 10 6.5 26t24 63.5t45 90.5t74 95.5t107 90t147 63.5t190.5 26 q54 0 107.5 -11.5t91 -27.5t67.5 -32.5t45 -27.5l15 -12q25 75 58 122.5t85 92.5q101 95 255.5 145t340.5 50q118 0 234.5 -23t164.5 -49q6 -4 8.5 -10t3.5 -14t3 -13q-141 -3 -246 -37q-90 -29 -169 -92t-131.5 -138t-94 -154.5t-64 -149t-34 -113t-11.5 -55.5 q0 -6 41.5 11.5t95.5 49.5t82 62q63 69 117 235l18 -8q0 -9 -14.5 -51t-44.5 -102t-62 -95q-47 -51 -119.5 -87t-121.5 -46q-96 -282 -276.5 -408t-458.5 -126q-77 0 -155 18t-159 62t-142.5 109t-100.5 168t-39 230q-19 102 -19 220zM47 492q9 -116 49.5 -208.5t98.5 -151 t132.5 -97t147 -54.5t146.5 -16q79 0 188 69t212.5 189.5t156.5 251.5q-60 20 -97 53q-39 -116 -95.5 -198t-127.5 -129t-148 -68t-169 -22q-63 0 -120.5 14t-100 35.5t-81.5 55t-64 62t-50 67.5t-36.5 61t-26 52.5t-15.5 33.5zM49 545l8 -24t25 -58t44 -82.5t66 -87.5 t89.5 -82.5t115.5 -58t144 -23.5q59 0 112 10.5t94.5 27t79 41.5t65 50t52.5 56.5t40.5 57.5t31 56.5t22.5 49.5t15 41t10 26q-70 94 -92 186q-8 32 -12.5 80t-5.5 81l-1 32q-5 5 -14 12.5t-40 27t-65.5 34.5t-88 27.5t-109.5 12.5q-99 0 -183.5 -24.5t-140.5 -57.5 t-103.5 -88t-72 -93t-46.5 -97t-26.5 -75t-11.5 -51q-2 -5 -2 -7zM975 901q6 -105 18 -164q3 -12 6.5 -23t6.5 -20t8.5 -20t8.5 -17.5t10 -18t9.5 -16t10.5 -16.5t10 -16q-2 14 -5 64t-9 75q-21 97 -74 172zM981 928q2 -4 15.5 -22t20.5 -30.5t18.5 -35t19.5 -49t14 -58.5 q5 -27 9 -71.5t6 -75.5l1 -31q68 -49 101 -55q1 2 17 49t30 81.5t40.5 96t59 113t74 110t96.5 111t117 92.5q84 55 176.5 76.5t280.5 30.5q-7 13 -57 31t-139 33t-181 15q-170 0 -317 -46t-254.5 -140.5t-147.5 -224.5zM1493 1393v14q64 34 140.5 85.5t123 78t80.5 26.5 q12 0 21.5 -6t9.5 -16q0 -31 -52.5 -55t-154.5 -58.5t-168 -68.5z" />
<glyph unicode="&#xce;" horiz-adv-x="1615" d="M6 750q0 135 54 256t140.5 203.5t197.5 131t223 48.5q54 0 105.5 -11.5t75.5 -23.5l25 -11l-4 -18q-96 45 -205 45q-104 0 -209.5 -46t-190.5 -125.5t-139 -197.5t-54 -251q0 -24 4 -61t8 -62l4 -25q2 10 6.5 26t24 63.5t45 90.5t74 95.5t107 90t147 63.5t190.5 26 q54 0 107.5 -11.5t91 -27.5t67.5 -32.5t45 -27.5l15 -12q25 75 58 122.5t85 92.5q101 95 255.5 145t340.5 50q118 0 234.5 -23t164.5 -49q6 -4 8.5 -10t3.5 -14t3 -13q-141 -3 -246 -37q-90 -29 -169 -92t-131.5 -138t-94 -154.5t-64 -149t-34 -113t-11.5 -55.5 q0 -6 41.5 11.5t95.5 49.5t82 62q63 69 117 235l18 -8q0 -9 -14.5 -51t-44.5 -102t-62 -95q-47 -51 -119.5 -87t-121.5 -46q-96 -282 -276.5 -408t-458.5 -126q-77 0 -155 18t-159 62t-142.5 109t-100.5 168t-39 230q-19 102 -19 220zM47 492q9 -116 49.5 -208.5t98.5 -151 t132.5 -97t147 -54.5t146.5 -16q79 0 188 69t212.5 189.5t156.5 251.5q-60 20 -97 53q-39 -116 -95.5 -198t-127.5 -129t-148 -68t-169 -22q-63 0 -120.5 14t-100 35.5t-81.5 55t-64 62t-50 67.5t-36.5 61t-26 52.5t-15.5 33.5zM49 545l8 -24t25 -58t44 -82.5t66 -87.5 t89.5 -82.5t115.5 -58t144 -23.5q59 0 112 10.5t94.5 27t79 41.5t65 50t52.5 56.5t40.5 57.5t31 56.5t22.5 49.5t15 41t10 26q-70 94 -92 186q-8 32 -12.5 80t-5.5 81l-1 32q-5 5 -14 12.5t-40 27t-65.5 34.5t-88 27.5t-109.5 12.5q-99 0 -183.5 -24.5t-140.5 -57.5 t-103.5 -88t-72 -93t-46.5 -97t-26.5 -75t-11.5 -51q-2 -5 -2 -7zM975 901q6 -105 18 -164q3 -12 6.5 -23t6.5 -20t8.5 -20t8.5 -17.5t10 -18t9.5 -16t10.5 -16.5t10 -16q-2 14 -5 64t-9 75q-21 97 -74 172zM981 928q2 -4 15.5 -22t20.5 -30.5t18.5 -35t19.5 -49t14 -58.5 q5 -27 9 -71.5t6 -75.5l1 -31q68 -49 101 -55q1 2 17 49t30 81.5t40.5 96t59 113t74 110t96.5 111t117 92.5q84 55 176.5 76.5t280.5 30.5q-7 13 -57 31t-139 33t-181 15q-170 0 -317 -46t-254.5 -140.5t-147.5 -224.5zM1451 1402q1 5 7 11q33 26 120.5 83t115.5 79 q19 16 35 0q146 -157 147 -158q10 -10 2 -11q-5 0 -14 5q-102 70 -152 107q-27 -17 -123.5 -59.5t-120.5 -55.5q-14 -8 -17 -1z" />
<glyph unicode="&#xcf;" horiz-adv-x="1615" d="M6 750q0 135 54 256t140.5 203.5t197.5 131t223 48.5q54 0 105.5 -11.5t75.5 -23.5l25 -11l-4 -18q-96 45 -205 45q-104 0 -209.5 -46t-190.5 -125.5t-139 -197.5t-54 -251q0 -24 4 -61t8 -62l4 -25q2 10 6.5 26t24 63.5t45 90.5t74 95.5t107 90t147 63.5t190.5 26 q54 0 107.5 -11.5t91 -27.5t67.5 -32.5t45 -27.5l15 -12q25 75 58 122.5t85 92.5q101 95 255.5 145t340.5 50q118 0 234.5 -23t164.5 -49q6 -4 8.5 -10t3.5 -14t3 -13q-141 -3 -246 -37q-90 -29 -169 -92t-131.5 -138t-94 -154.5t-64 -149t-34 -113t-11.5 -55.5 q0 -6 41.5 11.5t95.5 49.5t82 62q63 69 117 235l18 -8q0 -9 -14.5 -51t-44.5 -102t-62 -95q-47 -51 -119.5 -87t-121.5 -46q-96 -282 -276.5 -408t-458.5 -126q-77 0 -155 18t-159 62t-142.5 109t-100.5 168t-39 230q-19 102 -19 220zM47 492q9 -116 49.5 -208.5t98.5 -151 t132.5 -97t147 -54.5t146.5 -16q79 0 188 69t212.5 189.5t156.5 251.5q-60 20 -97 53q-39 -116 -95.5 -198t-127.5 -129t-148 -68t-169 -22q-63 0 -120.5 14t-100 35.5t-81.5 55t-64 62t-50 67.5t-36.5 61t-26 52.5t-15.5 33.5zM49 545l8 -24t25 -58t44 -82.5t66 -87.5 t89.5 -82.5t115.5 -58t144 -23.5q59 0 112 10.5t94.5 27t79 41.5t65 50t52.5 56.5t40.5 57.5t31 56.5t22.5 49.5t15 41t10 26q-70 94 -92 186q-8 32 -12.5 80t-5.5 81l-1 32q-5 5 -14 12.5t-40 27t-65.5 34.5t-88 27.5t-109.5 12.5q-99 0 -183.5 -24.5t-140.5 -57.5 t-103.5 -88t-72 -93t-46.5 -97t-26.5 -75t-11.5 -51q-2 -5 -2 -7zM975 901q6 -105 18 -164q3 -12 6.5 -23t6.5 -20t8.5 -20t8.5 -17.5t10 -18t9.5 -16t10.5 -16.5t10 -16q-2 14 -5 64t-9 75q-21 97 -74 172zM981 928q2 -4 15.5 -22t20.5 -30.5t18.5 -35t19.5 -49t14 -58.5 q5 -27 9 -71.5t6 -75.5l1 -31q68 -49 101 -55q1 2 17 49t30 81.5t40.5 96t59 113t74 110t96.5 111t117 92.5q84 55 176.5 76.5t280.5 30.5q-7 13 -57 31t-139 33t-181 15q-170 0 -317 -46t-254.5 -140.5t-147.5 -224.5zM1503 1489q4 25 26.5 43t47.5 18q24 0 39.5 -18.5 t9.5 -42.5q-4 -23 -27 -41t-47 -18q-27 0 -40.5 17.5t-8.5 41.5zM1759 1489q4 25 26.5 43t47.5 18t40 -18t9 -43q-5 -23 -27 -41t-47 -18q-26 0 -40 17.5t-9 41.5z" />
<glyph unicode="&#xd1;" horiz-adv-x="2131" d="M0 342q0 182 92 337t245.5 244t330.5 89q31 0 65.5 -3t52.5 -5l19 -3q9 141 105 284t227 202q75 34 160 44.5t245 10.5q150 0 435 -87.5t374 -129.5q28 31 51 53t61.5 51.5t83.5 45.5t93 16q60 0 97.5 -24.5t37.5 -65.5q0 -56 -61.5 -95.5t-159.5 -39.5q-45 0 -93 8.5 t-73 17.5l-25 8q-41 -65 -84 -147q-34 -65 -114 -226t-155 -295.5t-193 -324.5q-15 -24 -37.5 -60.5t-36 -58t-31.5 -51t-30 -47t-26 -38.5t-23.5 -33t-19 -23t-16.5 -16t-12 -5q-10 0 -18 7t-8 16q0 1 19.5 48t39.5 112t20 112q0 69 -16.5 219.5t-13.5 247.5q1 88 6 133 t24 174l-325 -645q-157 -299 -332 -440t-399 -141q-262 0 -422 144.5t-160 379.5zM16 342q0 -227 157.5 -367.5t408.5 -140.5q210 0 384.5 139t323.5 426q57 109 132.5 260.5t128 258.5t63.5 126q40 71 117 157.5t133 136.5l57 51q-164 55 -270 55q-134 0 -264 -45.5 t-208.5 -113t-78.5 -132.5q0 -24 16.5 -46.5t32.5 -32.5l16 -11l-4 -19q-3 1 -8.5 3.5t-20 12t-25 21t-19.5 31t-9 41.5q0 73 80.5 144.5t214.5 118t277 46.5q74 0 137.5 -13t177.5 -50q-141 -117 -188 -190t-47 -179q0 -19 40.5 -264.5t40.5 -255.5q0 -85 -69 -283 q69 110 124 200.5t90 151t78 142.5t65 124.5t75.5 150.5t85.5 171q17 35 37 70t32 53l11 17q-23 9 -63 23.5t-151.5 52t-208 66t-205 52t-171.5 23.5q-107 0 -190.5 -23.5t-190.5 -75.5q-77 -37 -137 -91.5t-95.5 -116t-55.5 -116.5t-31 -112q121 -52 174 -120.5t94 -211.5 q131 14 207 85t76 204q0 27 -8.5 64t-17.5 60l-9 24l18 4q37 -99 37 -152q0 -275 -299 -315q0 -127 -22 -207t-86 -174q-80 -114 -206 -182t-247 -68q-135 0 -225 93t-90 237q0 119 57.5 226.5t153 172t200.5 64.5q114 0 196.5 -79.5t82.5 -191.5q0 -67 -45 -155 q-17 -5 -23 -5q47 99 47 160q0 100 -77 176t-181 76q-81 0 -155.5 -41.5t-125 -106t-80.5 -143t-30 -153.5q0 -135 84.5 -224.5t210.5 -89.5q110 0 237.5 69.5t198.5 172.5q47 68 72.5 143t30 121.5t4.5 110.5q-124 19 -209 120.5t-82 227.5q-88 14 -137 14 q-175 0 -325 -86.5t-238.5 -237t-88.5 -329.5zM842 969q-3 -66 22.5 -124.5t66 -96t82.5 -61t79 -30.5q-16 54 -27 85.5t-30.5 69t-43.5 62t-61 49.5t-88 46zM1993 1513q24 49 69 75t99 26q20 0 66 -6t75 -6q21 0 38 2.5t41 8t34 7.5q-17 -50 -54 -77t-84 -27q-35 0 -88.5 8 t-83.5 8q-18 0 -35 -2.5t-41.5 -8.5t-35.5 -8zM2376 1319q1 0 20.5 -6t38 -11t52 -9.5t67.5 -4.5q83 0 143 31t60 82q0 30 -38.5 51t-78.5 21q-78 0 -150 -49.5t-114 -104.5z" />
<glyph unicode="&#xd2;" horiz-adv-x="1228" d="M0 324q0 177 117 393.5t307 396.5q204 175 350 193h86q-142 -69 -209.5 -126t-161.5 -184q-337 -477 -337 -829q0 -91 49 -148t123 -57q117 0 251 125.5t259 351.5q221 398 221 645q0 86 -27.5 126t-87.5 40q-67 0 -146 -53.5t-144.5 -134t-109.5 -184t-44 -195.5 q0 -71 36 -112.5t93 -41.5q56 0 108 29.5t89.5 75t66 98t43 100t14.5 80.5q0 50 -24 85.5t-52 35.5q-54 0 -118 -73l-15 14q80 80 133 80q42 0 70.5 -43t28.5 -99q0 -60 -26.5 -130t-71 -131.5t-110.5 -102.5t-136 -41q-68 0 -110 47.5t-42 128.5q0 118 71 256t182 234 t214 96q90 0 158.5 -89.5t68.5 -205.5q0 -88 -50 -246.5t-111 -265.5q-133 -232 -320.5 -372t-361.5 -140q-140 0 -232 108.5t-92 264.5zM676 1573q0 10 9.5 16t21.5 6q34 0 80.5 -26.5t123 -78t140.5 -85.5v-14q-66 34 -168 68.5t-154.5 58.5t-52.5 55z" />
<glyph unicode="&#xd3;" horiz-adv-x="1228" d="M0 324q0 177 117 393.5t307 396.5q204 175 350 193h86q-142 -69 -209.5 -126t-161.5 -184q-337 -477 -337 -829q0 -91 49 -148t123 -57q117 0 251 125.5t259 351.5q221 398 221 645q0 86 -27.5 126t-87.5 40q-67 0 -146 -53.5t-144.5 -134t-109.5 -184t-44 -195.5 q0 -71 36 -112.5t93 -41.5q56 0 108 29.5t89.5 75t66 98t43 100t14.5 80.5q0 50 -24 85.5t-52 35.5q-54 0 -118 -73l-15 14q80 80 133 80q42 0 70.5 -43t28.5 -99q0 -60 -26.5 -130t-71 -131.5t-110.5 -102.5t-136 -41q-68 0 -110 47.5t-42 128.5q0 118 71 256t182 234 t214 96q90 0 158.5 -89.5t68.5 -205.5q0 -88 -50 -246.5t-111 -265.5q-133 -232 -320.5 -372t-361.5 -140q-140 0 -232 108.5t-92 264.5zM721 1393v14q64 34 140.5 85.5t123 78t80.5 26.5q12 0 21.5 -6t9.5 -16q0 -31 -52.5 -55t-154.5 -58.5t-168 -68.5z" />
<glyph unicode="&#xd4;" horiz-adv-x="1228" d="M0 324q0 177 117 393.5t307 396.5q204 175 350 193h86q-142 -69 -209.5 -126t-161.5 -184q-337 -477 -337 -829q0 -91 49 -148t123 -57q117 0 251 125.5t259 351.5q221 398 221 645q0 86 -27.5 126t-87.5 40q-67 0 -146 -53.5t-144.5 -134t-109.5 -184t-44 -195.5 q0 -71 36 -112.5t93 -41.5q56 0 108 29.5t89.5 75t66 98t43 100t14.5 80.5q0 50 -24 85.5t-52 35.5q-54 0 -118 -73l-15 14q80 80 133 80q42 0 70.5 -43t28.5 -99q0 -60 -26.5 -130t-71 -131.5t-110.5 -102.5t-136 -41q-68 0 -110 47.5t-42 128.5q0 118 71 256t182 234 t214 96q90 0 158.5 -89.5t68.5 -205.5q0 -88 -50 -246.5t-111 -265.5q-133 -232 -320.5 -372t-361.5 -140q-140 0 -232 108.5t-92 264.5zM698 1402q1 5 7 11q33 26 120 83t115 79q19 16 35 0q146 -157 147 -158q10 -10 2 -11q-5 0 -14 5q-102 70 -152 107 q-27 -17 -123 -59.5t-120 -55.5q-14 -8 -17 -1z" />
<glyph unicode="&#xd5;" horiz-adv-x="1228" d="M0 324q0 177 117 393.5t307 396.5q204 175 350 193h86q-142 -69 -209.5 -126t-161.5 -184q-337 -477 -337 -829q0 -91 49 -148t123 -57q117 0 251 125.5t259 351.5q221 398 221 645q0 86 -27.5 126t-87.5 40q-67 0 -146 -53.5t-144.5 -134t-109.5 -184t-44 -195.5 q0 -71 36 -112.5t93 -41.5q56 0 108 29.5t89.5 75t66 98t43 100t14.5 80.5q0 50 -24 85.5t-52 35.5q-54 0 -118 -73l-15 14q80 80 133 80q42 0 70.5 -43t28.5 -99q0 -60 -26.5 -130t-71 -131.5t-110.5 -102.5t-136 -41q-68 0 -110 47.5t-42 128.5q0 118 71 256t182 234 t214 96q90 0 158.5 -89.5t68.5 -205.5q0 -88 -50 -246.5t-111 -265.5q-133 -232 -320.5 -372t-361.5 -140q-140 0 -232 108.5t-92 264.5zM686 1444q24 49 68.5 74.5t99.5 25.5q20 0 66 -7t75 -7q21 0 38.5 3t39.5 8.5t35 8.5q-17 -50 -53.5 -77t-83.5 -27q-35 0 -88.5 8 t-83.5 8q-19 0 -35 -2t-43 -8t-35 -8z" />
<glyph unicode="&#xd6;" horiz-adv-x="1228" d="M0 324q0 177 117 393.5t307 396.5q204 175 350 193h86q-142 -69 -209.5 -126t-161.5 -184q-337 -477 -337 -829q0 -91 49 -148t123 -57q117 0 251 125.5t259 351.5q221 398 221 645q0 86 -27.5 126t-87.5 40q-67 0 -146 -53.5t-144.5 -134t-109.5 -184t-44 -195.5 q0 -71 36 -112.5t93 -41.5q56 0 108 29.5t89.5 75t66 98t43 100t14.5 80.5q0 50 -24 85.5t-52 35.5q-54 0 -118 -73l-15 14q80 80 133 80q42 0 70.5 -43t28.5 -99q0 -60 -26.5 -130t-71 -131.5t-110.5 -102.5t-136 -41q-68 0 -110 47.5t-42 128.5q0 118 71 256t182 234 t214 96q90 0 158.5 -89.5t68.5 -205.5q0 -88 -50 -246.5t-111 -265.5q-133 -232 -320.5 -372t-361.5 -140q-140 0 -232 108.5t-92 264.5zM725 1489q4 25 26.5 43t47.5 18q24 0 39.5 -18.5t9.5 -42.5q-4 -23 -27 -41t-47 -18q-27 0 -40.5 17.5t-8.5 41.5zM981 1489 q4 25 26.5 43t47.5 18t40 -18t9 -43q-5 -23 -27 -41t-47 -18q-26 0 -40 17.5t-9 41.5z" />
<glyph unicode="&#xd7;" horiz-adv-x="620" d="M111 221l258 240l-121 250h61l101 -211l227 211h65l-272 -252l115 -238h-60l-96 197l-213 -197h-65z" />
<glyph unicode="&#xd9;" horiz-adv-x="1771" d="M10 707q0 76 30 157.5t93.5 160t150.5 140.5t211.5 100t266.5 38q136 0 241.5 -51t168.5 -158t63 -256q0 -23 -3 -44t-5.5 -36.5t-12.5 -37t-14 -31t-20.5 -34t-21.5 -31t-27.5 -37t-28.5 -38.5q-17 -22 -70.5 -92t-79.5 -106.5t-62.5 -93t-52.5 -100t-16 -79.5 q0 -41 20 -68.5t56 -27.5q67 0 145.5 68.5t141.5 158.5q24 35 66.5 105.5t79 131.5t101.5 148t137 165t182 170t239 175q-11 8 -30 21.5t-74.5 48t-107 60.5t-117 47.5t-114.5 21.5h-110v12h94q168 0 268.5 -35.5t247.5 -151.5q224 85 291 103q112 29 280 29q243 0 393 -114 t150 -280q0 -93 -93 -164t-216 -71q-91 0 -185 23.5t-171.5 61t-150 82.5t-127 90t-96 82.5t-62.5 61.5l-21 23q-13 -10 -35 -27.5t-86.5 -75t-123.5 -118.5t-131.5 -152t-125.5 -180q-226 -382 -227 -470q-1 -36 30 -36q34 0 70.5 14.5t63.5 35.5t49 42.5t34 35.5l11 15 v-37q-4 -6 -11 -15.5t-32.5 -34t-53 -43.5t-71.5 -34.5t-90 -15.5q-121 0 -121 203q-167 -203 -291 -203q-65 0 -116.5 66t-51.5 153q0 77 42 169t101.5 174t119 160.5t101.5 151.5t42 123q0 155 -102 241.5t-271 86.5q-135 0 -255.5 -37t-206 -97t-148 -136t-93 -155 t-30.5 -152q0 -128 95.5 -222t223.5 -94q82 0 174 21t160 59l6 -12q-134 -86 -340 -86q-141 0 -239.5 98t-98.5 236zM1120 1573q0 10 9.5 16t21.5 6q34 0 80.5 -26.5t123 -78t140.5 -85.5v-14q-66 34 -168 68.5t-154.5 58.5t-52.5 55zM2083 1094q18 -18 49 -48t123 -106.5 t180.5 -134.5t204.5 -106t211 -48q116 0 202.5 68.5t86.5 146.5q0 160 -147.5 266.5t-375.5 106.5q-115 0 -248.5 -36.5t-209.5 -72.5z" />
<glyph unicode="&#xda;" horiz-adv-x="1771" d="M10 707q0 76 30 157.5t93.5 160t150.5 140.5t211.5 100t266.5 38q136 0 241.5 -51t168.5 -158t63 -256q0 -23 -3 -44t-5.5 -36.5t-12.5 -37t-14 -31t-20.5 -34t-21.5 -31t-27.5 -37t-28.5 -38.5q-17 -22 -70.5 -92t-79.5 -106.5t-62.5 -93t-52.5 -100t-16 -79.5 q0 -41 20 -68.5t56 -27.5q67 0 145.5 68.5t141.5 158.5q24 35 66.5 105.5t79 131.5t101.5 148t137 165t182 170t239 175q-11 8 -30 21.5t-74.5 48t-107 60.5t-117 47.5t-114.5 21.5h-110v12h94q168 0 268.5 -35.5t247.5 -151.5q224 85 291 103q112 29 280 29q243 0 393 -114 t150 -280q0 -93 -93 -164t-216 -71q-91 0 -185 23.5t-171.5 61t-150 82.5t-127 90t-96 82.5t-62.5 61.5l-21 23q-13 -10 -35 -27.5t-86.5 -75t-123.5 -118.5t-131.5 -152t-125.5 -180q-226 -382 -227 -470q-1 -36 30 -36q34 0 70.5 14.5t63.5 35.5t49 42.5t34 35.5l11 15 v-37q-4 -6 -11 -15.5t-32.5 -34t-53 -43.5t-71.5 -34.5t-90 -15.5q-121 0 -121 203q-167 -203 -291 -203q-65 0 -116.5 66t-51.5 153q0 77 42 169t101.5 174t119 160.5t101.5 151.5t42 123q0 155 -102 241.5t-271 86.5q-135 0 -255.5 -37t-206 -97t-148 -136t-93 -155 t-30.5 -152q0 -128 95.5 -222t223.5 -94q82 0 174 21t160 59l6 -12q-134 -86 -340 -86q-141 0 -239.5 98t-98.5 236zM1382 1393v14q64 34 140.5 85.5t123 78t80.5 26.5q12 0 21.5 -6t9.5 -16q0 -31 -52.5 -55t-154.5 -58.5t-168 -68.5zM2083 1094q18 -18 49 -48t123 -106.5 t180.5 -134.5t204.5 -106t211 -48q116 0 202.5 68.5t86.5 146.5q0 160 -147.5 266.5t-375.5 106.5q-115 0 -248.5 -36.5t-209.5 -72.5z" />
<glyph unicode="&#xdb;" horiz-adv-x="1771" d="M10 707q0 76 30 157.5t93.5 160t150.5 140.5t211.5 100t266.5 38q136 0 241.5 -51t168.5 -158t63 -256q0 -23 -3 -44t-5.5 -36.5t-12.5 -37t-14 -31t-20.5 -34t-21.5 -31t-27.5 -37t-28.5 -38.5q-17 -22 -70.5 -92t-79.5 -106.5t-62.5 -93t-52.5 -100t-16 -79.5 q0 -41 20 -68.5t56 -27.5q67 0 145.5 68.5t141.5 158.5q24 35 66.5 105.5t79 131.5t101.5 148t137 165t182 170t239 175q-11 8 -30 21.5t-74.5 48t-107 60.5t-117 47.5t-114.5 21.5h-110v12h94q168 0 268.5 -35.5t247.5 -151.5q224 85 291 103q112 29 280 29q243 0 393 -114 t150 -280q0 -93 -93 -164t-216 -71q-91 0 -185 23.5t-171.5 61t-150 82.5t-127 90t-96 82.5t-62.5 61.5l-21 23q-13 -10 -35 -27.5t-86.5 -75t-123.5 -118.5t-131.5 -152t-125.5 -180q-226 -382 -227 -470q-1 -36 30 -36q34 0 70.5 14.5t63.5 35.5t49 42.5t34 35.5l11 15 v-37q-4 -6 -11 -15.5t-32.5 -34t-53 -43.5t-71.5 -34.5t-90 -15.5q-121 0 -121 203q-167 -203 -291 -203q-65 0 -116.5 66t-51.5 153q0 77 42 169t101.5 174t119 160.5t101.5 151.5t42 123q0 155 -102 241.5t-271 86.5q-135 0 -255.5 -37t-206 -97t-148 -136t-93 -155 t-30.5 -152q0 -128 95.5 -222t223.5 -94q82 0 174 21t160 59l6 -12q-134 -86 -340 -86q-141 0 -239.5 98t-98.5 236zM1316 1402q1 5 7 11q33 26 120.5 83t115.5 79q19 15 34 0q133 -142 148 -158q10 -10 2 -11q-5 0 -14 5q-102 70 -152 107q-27 -17 -123.5 -59.5 t-120.5 -55.5q-14 -8 -17 -1zM2083 1094q18 -18 49 -48t123 -106.5t180.5 -134.5t204.5 -106t211 -48q116 0 202.5 68.5t86.5 146.5q0 160 -147.5 266.5t-375.5 106.5q-115 0 -248.5 -36.5t-209.5 -72.5z" />
<glyph unicode="&#xdc;" horiz-adv-x="1771" d="M10 707q0 76 30 157.5t93.5 160t150.5 140.5t211.5 100t266.5 38q136 0 241.5 -51t168.5 -158t63 -256q0 -23 -3 -44t-5.5 -36.5t-12.5 -37t-14 -31t-20.5 -34t-21.5 -31t-27.5 -37t-28.5 -38.5q-17 -22 -70.5 -92t-79.5 -106.5t-62.5 -93t-52.5 -100t-16 -79.5 q0 -41 20 -68.5t56 -27.5q67 0 145.5 68.5t141.5 158.5q24 35 66.5 105.5t79 131.5t101.5 148t137 165t182 170t239 175q-11 8 -30 21.5t-74.5 48t-107 60.5t-117 47.5t-114.5 21.5h-110v12h94q168 0 268.5 -35.5t247.5 -151.5q224 85 291 103q112 29 280 29q243 0 393 -114 t150 -280q0 -93 -93 -164t-216 -71q-91 0 -185 23.5t-171.5 61t-150 82.5t-127 90t-96 82.5t-62.5 61.5l-21 23q-13 -10 -35 -27.5t-86.5 -75t-123.5 -118.5t-131.5 -152t-125.5 -180q-226 -382 -227 -470q-1 -36 30 -36q34 0 70.5 14.5t63.5 35.5t49 42.5t34 35.5l11 15 v-37q-4 -6 -11 -15.5t-32.5 -34t-53 -43.5t-71.5 -34.5t-90 -15.5q-121 0 -121 203q-167 -203 -291 -203q-65 0 -116.5 66t-51.5 153q0 77 42 169t101.5 174t119 160.5t101.5 151.5t42 123q0 155 -102 241.5t-271 86.5q-135 0 -255.5 -37t-206 -97t-148 -136t-93 -155 t-30.5 -152q0 -128 95.5 -222t223.5 -94q82 0 174 21t160 59l6 -12q-134 -86 -340 -86q-141 0 -239.5 98t-98.5 236zM1386 1489q4 25 26.5 43t47.5 18q24 0 39.5 -18.5t9.5 -42.5q-4 -23 -27 -41t-46 -18q-27 0 -41 17.5t-9 41.5zM1642 1489q4 25 26.5 43t47.5 18t40 -18 t9 -43q-5 -23 -26.5 -41t-46.5 -18q-26 0 -40.5 17.5t-9.5 41.5zM2083 1094q18 -18 49 -48t123 -106.5t180.5 -134.5t204.5 -106t211 -48q116 0 202.5 68.5t86.5 146.5q0 160 -147.5 266.5t-375.5 106.5q-115 0 -248.5 -36.5t-209.5 -72.5z" />
<glyph unicode="&#xdd;" horiz-adv-x="2148" d="M4 1251q0 275 479 275q90 0 160.5 -19.5t112.5 -47t75 -71.5t47.5 -77.5t28.5 -79.5q14 5 59 23.5t60.5 23t53 14t76 12.5t89.5 3q174 0 297 -124t123 -296q0 -84 -33.5 -172.5t-76.5 -153t-98.5 -152.5t-84.5 -153q-2 -5 -4 -14.5t-7 -36.5t-7.5 -51.5t-0.5 -54.5 t10 -51.5t27 -36.5t48 -15q53 0 105 46.5t99 128t87 165.5t88.5 186t85.5 162q67 108 132.5 196.5t153.5 180t178.5 153.5t203 101t229.5 39q87 0 155.5 -15t108 -39.5t67.5 -54t38.5 -58.5t15 -53.5t3.5 -39.5l-1 -15q-22 13 -23 13q-10 70 -42.5 120t-80.5 76t-98 37.5 t-107 11.5q-123 0 -259.5 -78t-266.5 -216.5t-250.5 -336t-212.5 -427.5q-49 -127 -97.5 -242t-78.5 -183t-35 -81q-18 -46 -43 -90q10 -12 34 -36t81 -74t122 -99t158 -104.5t188 -96.5t213 -68.5t232 -27.5q174 0 323.5 79.5t240 224t90.5 322.5q0 102 -40.5 196.5 t-106.5 161.5t-152.5 106.5t-175.5 39.5q-152 0 -245 -81.5t-93 -205.5q0 -51 15.5 -94t40 -70t54.5 -48t60 -31.5t54.5 -17t39.5 -7.5l16 -2q0 -22 -20 -22q-122 0 -205.5 82t-83.5 210q0 140 104.5 230t262.5 90q100 0 192.5 -43t159.5 -115t107 -171t40 -208 q0 -180 -90.5 -329.5t-246 -234.5t-341.5 -85q-240 0 -504 126t-534 382q-119 -238 -314 -378t-456 -140q-141 0 -262.5 38.5t-204 103.5t-129.5 151t-47 180q0 96 47.5 184t130.5 154t204.5 105.5t260.5 39.5q95 0 187 -23t159 -54.5t138.5 -81t111.5 -84.5t91.5 -83 t66.5 -61q30 42 43 78q32 66 98 414q-119 -143 -176 -187.5t-115 -44.5q-83 0 -132.5 70.5t-49.5 187.5q0 72 23.5 145.5t58.5 132.5t76.5 123t76.5 118t58.5 117t23.5 120q0 76 -27 136t-71.5 96t-98 54.5t-110.5 18.5q-82 0 -159 -18.5t-177 -65.5q11 -74 -14 -174 q-22 -83 -68 -157l-16 4q50 94 66 155q9 43 12.5 84t2.5 60l-1 20q-128 -76 -222 -122.5t-156.5 -64.5t-92.5 -22t-74 -4q-135 0 -238.5 79t-103.5 185zM18 1251q0 -105 98.5 -175t229.5 -70q97 0 220.5 52t320.5 165q-17 66 -44.5 116t-73.5 90.5t-118 62t-168 21.5 q-97 0 -176.5 -13t-146.5 -41.5t-104.5 -81.5t-37.5 -126zM209 -383q0 -101 85.5 -188.5t224.5 -138t294 -50.5q82 0 159 15t136 36t117 56.5t96.5 64t80 73t61 68t46 64.5t29.5 47t16 29q-115 113 -162 153q-275 234 -579 234q-267 0 -435.5 -133t-168.5 -330zM1925 1393 v14q64 34 140.5 85.5t123 78t80.5 26.5q12 0 21.5 -6t9.5 -16q0 -31 -52.5 -55t-154.5 -58.5t-168 -68.5z" />
<glyph unicode="&#xdf;" horiz-adv-x="745" d="M-819 -459q0 75 52.5 132t127.5 57q39 0 74 -30.5t35 -66.5q0 -39 -28 -67.5t-69 -28.5q-75 0 -92 64q25 -5 44.5 5t19.5 29q0 9 -8.5 17t-16.5 8q-43 0 -71.5 -45t-28.5 -98q0 -59 47 -95t110 -36q46 0 88.5 25t80.5 75t71.5 109t70.5 144.5t68.5 162.5t75 182.5 t80.5 185.5q111 239 246.5 452t269.5 349.5t223 136.5q33 0 63.5 -33.5t30.5 -72.5q0 -78 -67 -194.5t-154 -194.5q-12 -11 -34 -30t-32.5 -29t-27 -25.5t-24.5 -25.5t-17 -22.5t-12.5 -23t-3.5 -20.5q0 -45 19.5 -92t39 -105.5t19.5 -130.5q0 -53 -25 -105q45 5 92.5 36.5 t93.5 84.5t84.5 107.5t81.5 124.5l15 -11q-49 -83 -84 -134t-82 -104.5t-100 -84t-115 -41.5q-34 -53 -91.5 -84t-123.5 -31q-68 0 -116 39t-48 113q0 33 26 53.5t64 20.5q19 0 38 -6t31 -12.5t34.5 -20t33.5 -19.5q64 77 64 176q0 36 -9.5 89.5t-9.5 88.5q0 31 17 65.5 t37 58.5t59 69t61 72q164 207 164 364q0 49 -29 49q-37 0 -98 -78t-140 -223t-152 -293.5t-165 -347.5q-152 -325 -182 -384q-146 -288 -275 -397q-103 -87 -216 -87q-89 0 -147 47.5t-58 136.5zM98 139q0 -26 18.5 -41.5t43.5 -15.5q38 0 82 35q-18 9 -43 24.5t-41 23 t-31 7.5q-11 0 -20 -10.5t-9 -22.5z" />
<glyph unicode="&#xe0;" horiz-adv-x="872" d="M-109 172q0 70 35 147t93.5 143t146.5 109t184 43q36 0 59.5 -9.5t45.5 -39.5q23 31 43 31q12 0 43 -6t43 -6q8 0 32 25.5t35 29.5l-268 -504q-35 -64 -35 -94q0 -17 11.5 -29t33.5 -12q54 0 211 144.5t299 316.5l17 -15q-172 -211 -319 -344t-220 -133q-62 0 -94.5 29.5 t-61.5 91.5q-91 -121 -194 -121q-62 0 -101 52.5t-39 150.5zM12 68q0 -36 8 -52t33 -16q35 0 69 24.5t52.5 49.5t40.5 61q209 356 209 393q0 19 -11.5 34.5t-31.5 15.5q-63 0 -132.5 -63.5t-119.5 -149t-83.5 -169.5t-33.5 -128zM172 918q0 10 9.5 16t21.5 6 q34 0 80.5 -26.5t123 -78t140.5 -85.5v-15q-66 34 -168.5 68.5t-154.5 59t-52 55.5z" />
<glyph unicode="&#xe1;" horiz-adv-x="872" d="M-109 172q0 70 35 147t93.5 143t146.5 109t184 43q36 0 59.5 -9.5t45.5 -39.5q23 31 43 31q12 0 43 -6t43 -6q8 0 32 25.5t35 29.5l-268 -504q-35 -64 -35 -94q0 -17 11.5 -29t33.5 -12q54 0 211 144.5t299 316.5l17 -15q-172 -211 -319 -344t-220 -133q-62 0 -94.5 29.5 t-61.5 91.5q-91 -121 -194 -121q-62 0 -101 52.5t-39 150.5zM12 68q0 -36 8 -52t33 -16q35 0 69 24.5t52.5 49.5t40.5 61q209 356 209 393q0 19 -11.5 34.5t-31.5 15.5q-63 0 -132.5 -63.5t-119.5 -149t-83.5 -169.5t-33.5 -128zM268 719v14q65 34 141 85.5t122.5 78.5 t80.5 27q11 0 21 -6.5t10 -16.5q0 -31 -52.5 -55t-154.5 -58.5t-168 -68.5z" />
<glyph unicode="&#xe2;" horiz-adv-x="872" d="M-109 172q0 70 35 147t93.5 143t146.5 109t184 43q36 0 59.5 -9.5t45.5 -39.5q23 31 43 31q12 0 43 -6t43 -6q8 0 32 25.5t35 29.5l-268 -504q-35 -64 -35 -94q0 -17 11.5 -29t33.5 -12q54 0 211 144.5t299 316.5l17 -15q-172 -211 -319 -344t-220 -133q-62 0 -94.5 29.5 t-61.5 91.5q-91 -121 -194 -121q-62 0 -101 52.5t-39 150.5zM12 68q0 -36 8 -52t33 -16q35 0 69 24.5t52.5 49.5t40.5 61q209 356 209 393q0 19 -11.5 34.5t-31.5 15.5q-63 0 -132.5 -63.5t-119.5 -149t-83.5 -169.5t-33.5 -128zM216 769q-1 4 7 11q33 26 120.5 83t115.5 79 q19 16 35 0q146 -157 147 -158q10 -10 2 -11q-4 -1 -14 5q-102 70 -152 107q-27 -17 -123.5 -59.5t-120.5 -55.5q-14 -8 -17 -1z" />
<glyph unicode="&#xe3;" horiz-adv-x="872" d="M-109 172q0 70 35 147t93.5 143t146.5 109t184 43q36 0 59.5 -9.5t45.5 -39.5q23 31 43 31q12 0 43 -6t43 -6q8 0 32 25.5t35 29.5l-268 -504q-35 -64 -35 -94q0 -17 11.5 -29t33.5 -12q54 0 211 144.5t299 316.5l17 -15q-172 -211 -319 -344t-220 -133q-62 0 -94.5 29.5 t-61.5 91.5q-91 -121 -194 -121q-62 0 -101 52.5t-39 150.5zM12 68q0 -36 8 -52t33 -16q35 0 69 24.5t52.5 49.5t40.5 61q209 356 209 393q0 19 -11.5 34.5t-31.5 15.5q-63 0 -132.5 -63.5t-119.5 -149t-83.5 -169.5t-33.5 -128zM293 750q24 49 68.5 74.5t99.5 25.5 q20 0 66 -6t75 -6q21 0 38 2.5t41 8t34 7.5q-17 -50 -53.5 -77t-83.5 -27q-35 0 -88.5 8t-83.5 8q-19 0 -35 -2t-43 -8t-35 -8z" />
<glyph unicode="&#xe4;" horiz-adv-x="872" d="M-109 172q0 70 35 147t93.5 143t146.5 109t184 43q36 0 59.5 -9.5t45.5 -39.5q23 31 43 31q12 0 43 -6t43 -6q8 0 32 25.5t35 29.5l-268 -504q-35 -64 -35 -94q0 -17 11.5 -29t33.5 -12q54 0 211 144.5t299 316.5l17 -15q-172 -211 -319 -344t-220 -133q-62 0 -94.5 29.5 t-61.5 91.5q-91 -121 -194 -121q-62 0 -101 52.5t-39 150.5zM12 68q0 -36 8 -52t33 -16q35 0 69 24.5t52.5 49.5t40.5 61q209 356 209 393q0 19 -11.5 34.5t-31.5 15.5q-63 0 -132.5 -63.5t-119.5 -149t-83.5 -169.5t-33.5 -128zM293 825q4 25 26.5 43.5t47.5 18.5 q24 0 39.5 -19t9.5 -43q-4 -23 -27 -41t-47 -18q-27 0 -40.5 17.5t-8.5 41.5zM549 825q4 25 26.5 43.5t47.5 18.5t40 -18.5t9 -43.5q-5 -23 -27 -41t-47 -18q-26 0 -40 17.5t-9 41.5z" />
<glyph unicode="&#xe5;" horiz-adv-x="872" d="M-109 172q0 70 35 147t93.5 143t146.5 109t184 43q36 0 59.5 -9.5t45.5 -39.5q23 31 43 31q12 0 43 -6t43 -6q8 0 32 25.5t35 29.5l-268 -504q-35 -64 -35 -94q0 -17 11.5 -29t33.5 -12q54 0 211 144.5t299 316.5l17 -15q-172 -211 -319 -344t-220 -133q-62 0 -94.5 29.5 t-61.5 91.5q-91 -121 -194 -121q-62 0 -101 52.5t-39 150.5zM12 68q0 -36 8 -52t33 -16q35 0 69 24.5t52.5 49.5t40.5 61q209 356 209 393q0 19 -11.5 34.5t-31.5 15.5q-63 0 -132.5 -63.5t-119.5 -149t-83.5 -169.5t-33.5 -128zM473 874q8 49 43 83t86 34q45 0 64 -33.5 t10 -83.5q-9 -52 -43.5 -82t-87.5 -30q-88 0 -72 112zM512 874q-15 -77 43 -77q32 0 55.5 20t32.5 57q9 38 -6 60t-43 22q-35 0 -54 -20t-28 -62z" />
<glyph unicode="&#xe6;" horiz-adv-x="1030" d="M-109 174q0 70 35 147t93.5 143t146.5 109t184 43q36 0 59.5 -9.5t45.5 -39.5q23 41 43 41h127q4 0 -0.5 -8t-14.5 -22q82 36 152 36q48 0 82.5 -32.5t34.5 -79.5q0 -57 -37.5 -106t-91.5 -80t-115.5 -53.5t-108.5 -32t-71 -9.5q-1 -2 -6.5 -13.5t-6.5 -13.5t-5 -12 l-5 -12.5t-4 -11.5t-3.5 -13.5t-2.5 -13.5t-2.5 -16t-1 -17t-0.5 -20q0 -76 55 -76q72 0 166.5 53.5t177.5 130.5t148.5 151t95.5 124l16 -15l-2 3q-20 -34 -63.5 -89t-109.5 -123.5t-136.5 -127t-150 -98.5t-144.5 -40t-109.5 35t-60.5 90q-50 -62 -131.5 -93.5 t-138.5 -31.5q-62 0 -101 52.5t-39 150.5zM12 68q0 -36 8 -52t33 -16q35 0 69 24.5t52.5 49.5t40.5 61q209 356 209 393q0 19 -11.5 34.5t-31.5 15.5q-63 0 -132.5 -63.5t-119.5 -149t-83.5 -169.5t-33.5 -128zM475 270q54 0 127 52t123.5 116.5t50.5 102.5q0 47 -43 47 q-45 0 -113 -83t-145 -235z" />
<glyph unicode="&#xe7;" horiz-adv-x="794" d="M-109 154q0 110 44 200.5t113.5 145.5t149 84.5t156.5 29.5q52 0 87.5 -31.5t35.5 -74.5q0 -46 -38 -83.5t-85 -37.5q-36 0 -54.5 14.5t-18.5 38.5q0 40 20 70q35 -27 59 -27q14 0 39 22.5t25 45.5q0 43 -70 43q-47 0 -109.5 -62t-114 -146t-88 -173t-36.5 -141 q0 -35 26.5 -56.5t65.5 -21.5q70 0 153 24.5t178.5 76t199.5 146t196 220.5l17 -15q-165 -229 -357.5 -350t-369.5 -127l-39 -59q32 -6 53 -28t21 -54q0 -38 -37 -66t-82 -28q-61 0 -123 33q-20 10 -10 20.5t28 1.5q8 -5 30.5 -9t49 -4.5t46.5 11.5t20 37q0 24 -37 27.5 t-66 -3.5l17 54q27 12 59 12l29 57q-91 4 -137 52.5t-46 130.5z" />
<glyph unicode="&#xe8;" horiz-adv-x="628" d="M-109 154q0 82 34 157t87 128.5t116.5 94t124 60.5t107.5 20q48 0 82.5 -32.5t34.5 -79.5q0 -57 -37.5 -106t-91.5 -80t-115.5 -53.5t-108.5 -32t-71 -9.5q-1 -2 -6.5 -13.5t-6.5 -13.5t-5 -12l-5 -12.5t-4 -11.5t-3.5 -13.5t-2.5 -13.5t-2.5 -16t-1 -17t-0.5 -20 q0 -76 56 -76q58 0 132 36t142 90t133 118t111 120t69 95l17 -15q-20 -34 -63.5 -89t-109.5 -123t-136.5 -126.5t-150 -98.5t-144.5 -40q-82 0 -131.5 55t-49.5 130zM63 918q0 10 9.5 16t21.5 6q34 0 80.5 -26.5t123 -78t140.5 -85.5v-15q-66 34 -168.5 68.5t-154.5 59 t-52 55.5zM74 270q54 0 127 52t123.5 116.5t50.5 102.5q0 47 -43 47q-45 0 -113 -83t-145 -235z" />
<glyph unicode="&#xe9;" horiz-adv-x="628" d="M-109 154q0 82 34 157t87 128.5t116.5 94t124 60.5t107.5 20q48 0 82.5 -32.5t34.5 -79.5q0 -57 -37.5 -106t-91.5 -80t-115.5 -53.5t-108.5 -32t-71 -9.5q-1 -2 -6.5 -13.5t-6.5 -13.5t-5 -12l-5 -12.5t-4 -11.5t-3.5 -13.5t-2.5 -13.5t-2.5 -16t-1 -17t-0.5 -20 q0 -76 56 -76q58 0 132 36t142 90t133 118t111 120t69 95l17 -15q-20 -34 -63.5 -89t-109.5 -123t-136.5 -126.5t-150 -98.5t-144.5 -40q-82 0 -131.5 55t-49.5 130zM74 270q54 0 127 52t123.5 116.5t50.5 102.5q0 47 -43 47q-45 0 -113 -83t-145 -235zM197 719v14 q65 34 141 85.5t122.5 78.5t80.5 27q11 0 20.5 -6.5t9.5 -16.5q0 -31 -52 -55t-154 -58.5t-168 -68.5z" />
<glyph unicode="&#xea;" horiz-adv-x="628" d="M-109 154q0 82 34 157t87 128.5t116.5 94t124 60.5t107.5 20q48 0 82.5 -32.5t34.5 -79.5q0 -57 -37.5 -106t-91.5 -80t-115.5 -53.5t-108.5 -32t-71 -9.5q-1 -2 -6.5 -13.5t-6.5 -13.5t-5 -12l-5 -12.5t-4 -11.5t-3.5 -13.5t-2.5 -13.5t-2.5 -16t-1 -17t-0.5 -20 q0 -76 56 -76q58 0 132 36t142 90t133 118t111 120t69 95l17 -15q-20 -34 -63.5 -89t-109.5 -123t-136.5 -126.5t-150 -98.5t-144.5 -40q-82 0 -131.5 55t-49.5 130zM74 270q54 0 127 52t123.5 116.5t50.5 102.5q0 47 -43 47q-45 0 -113 -83t-145 -235zM128 769q-1 4 7 11 q33 26 120.5 83t115.5 79q19 16 35 0q146 -157 147 -158q10 -10 2 -11q-4 -1 -14 5q-102 70 -152 107q-27 -17 -123.5 -59.5t-120.5 -55.5q-14 -8 -17 -1z" />
<glyph unicode="&#xeb;" horiz-adv-x="628" d="M-109 154q0 82 34 157t87 128.5t116.5 94t124 60.5t107.5 20q48 0 82.5 -32.5t34.5 -79.5q0 -57 -37.5 -106t-91.5 -80t-115.5 -53.5t-108.5 -32t-71 -9.5q-1 -2 -6.5 -13.5t-6.5 -13.5t-5 -12l-5 -12.5t-4 -11.5t-3.5 -13.5t-2.5 -13.5t-2.5 -16t-1 -17t-0.5 -20 q0 -76 56 -76q58 0 132 36t142 90t133 118t111 120t69 95l17 -15q-20 -34 -63.5 -89t-109.5 -123t-136.5 -126.5t-150 -98.5t-144.5 -40q-82 0 -131.5 55t-49.5 130zM74 270q54 0 127 52t123.5 116.5t50.5 102.5q0 47 -43 47q-45 0 -113 -83t-145 -235zM203 825 q5 25 26.5 43.5t46.5 18.5q24 0 40 -19t10 -43q-4 -23 -27 -41t-47 -18q-27 0 -40.5 17.5t-8.5 41.5zM459 825q5 25 26.5 43.5t46.5 18.5t40.5 -19t9.5 -43q-5 -23 -27 -41t-47 -18q-26 0 -40 17.5t-9 41.5z" />
<glyph unicode="&#xec;" horiz-adv-x="481" d="M-139 92q0 49 24.5 116.5t48.5 113.5t72 127.5t60 103.5q1 3 4 8.5t4.5 7.5t4 7t4 6.5l4.5 4.5t6 4l7.5 2.5t9.5 2t11 0.5q35 0 47 -9t22 -9q8 0 36.5 29t41.5 32l-260 -496q-20 -39 -20 -77q0 -23 12.5 -38.5t36.5 -15.5q35 0 147 104.5t200 200t128 144.5l16 -15 q-77 -92 -137.5 -159t-141 -148.5t-148 -125.5t-113.5 -44q-56 0 -91.5 32.5t-35.5 90.5zM31 918q0 10 9.5 16t20.5 6q34 0 81 -26.5t123.5 -78t140.5 -85.5v-15q-66 34 -168.5 68.5t-154.5 59t-52 55.5z" />
<glyph unicode="&#xed;" horiz-adv-x="481" d="M-139 92q0 49 24.5 116.5t48.5 113.5t72 127.5t60 103.5q1 3 4 8.5t4.5 7.5t4 7t4 6.5l4.5 4.5t6 4l7.5 2.5t9.5 2t11 0.5q35 0 47 -9t22 -9q8 0 36.5 29t41.5 32l-260 -496q-20 -39 -20 -77q0 -23 12.5 -38.5t36.5 -15.5q35 0 147 104.5t200 200t128 144.5l16 -15 q-77 -92 -137.5 -159t-141 -148.5t-148 -125.5t-113.5 -44q-56 0 -91.5 32.5t-35.5 90.5zM47 719v14q65 34 141 85.5t122.5 78.5t80.5 27q11 0 21 -6.5t10 -16.5q0 -31 -52.5 -55t-154.5 -58.5t-168 -68.5z" />
<glyph unicode="&#xee;" horiz-adv-x="481" d="M-139 92q0 49 24.5 116.5t48.5 113.5t72 127.5t60 103.5q1 3 4 8.5t4.5 7.5t4 7t4 6.5l4.5 4.5t6 4l7.5 2.5t9.5 2t11 0.5q35 0 47 -9t22 -9q8 0 36.5 29t41.5 32l-260 -496q-20 -39 -20 -77q0 -23 12.5 -38.5t36.5 -15.5q35 0 147 104.5t200 200t128 144.5l16 -15 q-77 -92 -137.5 -159t-141 -148.5t-148 -125.5t-113.5 -44q-56 0 -91.5 32.5t-35.5 90.5zM30 769q-1 4 7 11q33 26 120 83t115 79q19 16 35 0q132 -143 148 -158q10 -10 1 -11q-6 0 -14 5q-90 62 -151 107q-27 -17 -123.5 -59.5t-120.5 -55.5q-14 -8 -17 -1z" />
<glyph unicode="&#xef;" horiz-adv-x="481" d="M-139 92q0 49 24.5 116.5t48.5 113.5t72 127.5t60 103.5q1 3 4 8.5t4.5 7.5t4 7t4 6.5l4.5 4.5t6 4l7.5 2.5t9.5 2t11 0.5q35 0 47 -9t22 -9q8 0 36.5 29t41.5 32l-260 -496q-20 -39 -20 -77q0 -23 12.5 -38.5t36.5 -15.5q35 0 147 104.5t200 200t128 144.5l16 -15 q-77 -92 -137.5 -159t-141 -148.5t-148 -125.5t-113.5 -44q-56 0 -91.5 32.5t-35.5 90.5zM76 825q4 25 26.5 43.5t47.5 18.5q24 0 39.5 -19t9.5 -43q-4 -23 -27 -41t-47 -18q-27 0 -40.5 17.5t-8.5 41.5zM332 825q4 25 26.5 43.5t47.5 18.5t40 -18.5t9 -43.5q-5 -23 -27 -41 t-47 -18q-26 0 -40 17.5t-9 41.5z" />
<glyph unicode="&#xf1;" horiz-adv-x="788" d="M-250 -55l316 602q14 27 26 38t35 11q19 0 39 -8t33 -8q9 0 33.5 26t41.5 33l-104 -197q106 93 174 132.5t133 39.5q43 0 68.5 -25.5t25.5 -68.5q0 -49 -39 -110l-190 -297q-37 -57 -37 -70q0 -37 43 -37q57 0 170 123l301 332l17 -15l-316 -354q-53 -61 -100 -93 t-107 -32q-55 0 -84 34t-34 91q-1 19 0 31.5t11.5 37t31.5 56.5l170 260q28 45 28 62q0 18 -30 18q-52 0 -153.5 -91.5t-203.5 -262.5q-20 -33 -53.5 -98.5t-53 -91t-40.5 -25.5q-14 0 -39.5 9t-36.5 9q-8 0 -27 -15t-34 -31zM238 750q24 49 68.5 74.5t99.5 25.5q20 0 66 -6 t75 -6q21 0 38 2.5t40.5 8t33.5 7.5q-17 -50 -53.5 -77t-83.5 -27q-35 0 -88.5 8t-83.5 8q-19 0 -35 -2.5t-42 -8t-35 -7.5z" />
<glyph unicode="&#xf2;" horiz-adv-x="770" d="M-135 86q0 48 17 108t42 105l148 268q15 29 45 29q19 0 42.5 -8t33.5 -8q7 0 29.5 25t41.5 32l-244 -467q-30 -56 -30 -92t18.5 -57t46.5 -21q131 0 267 289q-66 76 -66 149q0 78 50 135.5t100 57.5q44 0 80 -49.5t36 -108.5q0 -50 -19 -103t-38 -81q61 0 151 44t185 128 l16 -15q-72 -70 -168.5 -125t-199.5 -59q-16 -40 -60 -89t-105.5 -95.5t-144 -77.5t-162.5 -31q-46 0 -79 37t-33 80zM119 918q0 10 9.5 16t21.5 6q34 0 80.5 -26.5t123 -78t140.5 -85.5v-15q-66 34 -168.5 68.5t-154.5 59t-52 55.5zM281 436q0 -35 14.5 -62t42.5 -61 q86 146 86 179q0 92 -49 92q-37 0 -65.5 -48t-28.5 -100z" />
<glyph unicode="&#xf3;" horiz-adv-x="770" d="M-135 86q0 48 17 108t42 105l148 268q15 29 45 29q19 0 42.5 -8t33.5 -8q7 0 29.5 25t41.5 32l-244 -467q-30 -56 -30 -92t18.5 -57t46.5 -21q131 0 267 289q-66 76 -66 149q0 78 50 135.5t100 57.5q44 0 80 -49.5t36 -108.5q0 -50 -19 -103t-38 -81q61 0 151 44t185 128 l16 -15q-72 -70 -168.5 -125t-199.5 -59q-16 -40 -60 -89t-105.5 -95.5t-144 -77.5t-162.5 -31q-46 0 -79 37t-33 80zM223 719v14q65 34 141 85.5t122.5 78.5t80.5 27q11 0 21 -6.5t10 -16.5q0 -31 -52.5 -55t-154.5 -58.5t-168 -68.5zM281 436q0 -35 14.5 -62t42.5 -61 q86 146 86 179q0 92 -49 92q-37 0 -65.5 -48t-28.5 -100z" />
<glyph unicode="&#xf4;" horiz-adv-x="770" d="M-135 86q0 48 17 108t42 105l148 268q15 29 45 29q19 0 42.5 -8t33.5 -8q7 0 29.5 25t41.5 32l-244 -467q-30 -56 -30 -92t18.5 -57t46.5 -21q131 0 267 289q-66 76 -66 149q0 78 50 135.5t100 57.5q44 0 80 -49.5t36 -108.5q0 -50 -19 -103t-38 -81q61 0 151 44t185 128 l16 -15q-72 -70 -168.5 -125t-199.5 -59q-16 -40 -60 -89t-105.5 -95.5t-144 -77.5t-162.5 -31q-46 0 -79 37t-33 80zM153 769q-1 4 7 11q33 26 120 83t115 79q19 16 35 0q132 -143 148 -158q10 -10 1 -11q-5 0 -14 5q-90 62 -151 107q-27 -17 -123.5 -59.5t-120.5 -55.5 q-14 -8 -17 -1zM281 436q0 -35 14.5 -62t42.5 -61q86 146 86 179q0 92 -49 92q-37 0 -65.5 -48t-28.5 -100z" />
<glyph unicode="&#xf5;" horiz-adv-x="770" d="M-135 86q0 48 17 108t42 105l148 268q15 29 45 29q19 0 42.5 -8t33.5 -8q7 0 29.5 25t41.5 32l-244 -467q-30 -56 -30 -92t18.5 -57t46.5 -21q131 0 267 289q-66 76 -66 149q0 78 50 135.5t100 57.5q44 0 80 -49.5t36 -108.5q0 -50 -19 -103t-38 -81q61 0 151 44t185 128 l16 -15q-72 -70 -168.5 -125t-199.5 -59q-16 -40 -60 -89t-105.5 -95.5t-144 -77.5t-162.5 -31q-46 0 -79 37t-33 80zM193 750q49 100 167 100q20 0 66.5 -6t75.5 -6q21 0 38 2.5t40.5 8t33.5 7.5q-17 -50 -53.5 -77t-83.5 -27q-35 0 -88.5 8t-83.5 8q-19 0 -35 -2.5t-42 -8 t-35 -7.5zM281 436q0 -35 14.5 -62t42.5 -61q86 146 86 179q0 92 -49 92q-37 0 -65.5 -48t-28.5 -100z" />
<glyph unicode="&#xf6;" horiz-adv-x="770" d="M-135 86q0 48 17 108t42 105l148 268q15 29 45 29q19 0 42.5 -8t33.5 -8q7 0 29.5 25t41.5 32l-244 -467q-30 -56 -30 -92t18.5 -57t46.5 -21q131 0 267 289q-66 76 -66 149q0 78 50 135.5t100 57.5q44 0 80 -49.5t36 -108.5q0 -50 -19 -103t-38 -81q61 0 151 44t185 128 l16 -15q-72 -70 -168.5 -125t-199.5 -59q-16 -40 -60 -89t-105.5 -95.5t-144 -77.5t-162.5 -31q-46 0 -79 37t-33 80zM215 825q4 25 26.5 43.5t47.5 18.5q24 0 39.5 -19t9.5 -43q-4 -23 -27 -41t-47 -18q-27 0 -40.5 17.5t-8.5 41.5zM281 436q0 -35 14.5 -62t42.5 -61 q86 146 86 179q0 92 -49 92q-37 0 -65.5 -48t-28.5 -100zM471 825q4 25 26.5 43.5t47.5 18.5t40 -18.5t9 -43.5q-5 -23 -27 -41t-47 -18q-26 0 -40 17.5t-9 41.5z" />
<glyph unicode="&#xf7;" horiz-adv-x="620" d="M131 440l19 52h466l-18 -52h-467zM236 287q10 31 39.5 52t60.5 21t44.5 -21t2.5 -52q-10 -31 -39.5 -52.5t-60.5 -21.5t-44.5 21.5t-2.5 52.5zM367 645q10 31 39.5 52.5t60.5 21.5t44.5 -21.5t2.5 -52.5q-12 -31 -41 -52.5t-59 -21.5q-31 0 -45 21.5t-2 52.5z" />
<glyph unicode="&#xf8;" horiz-adv-x="755" d="M-121 -131l90 127q-34 27 -53.5 71t-19.5 91q0 85 41 169t105.5 146t149.5 100.5t168 38.5q27 0 48 -6l65 92h66l-84 -116q71 -54 71 -160q0 -32 -8 -61.5t-24 -64.5t-17 -38q17 3 62 23q115 53 247 180l17 -15v-2q-74 -89 -252 -188q-71 -27 -92 -31q-21 -35 -58 -75.5 t-89.5 -83.5t-121.5 -71t-137 -28q-15 0 -35 4l-73 -102h-66zM16 59l185 258q-6 12 -6 25q0 31 18.5 48.5t44.5 17.5h6l125 172q-13 10 -33 10q-58 0 -140.5 -101.5t-141 -227t-58.5 -195.5v-7zM39 0q8 -4 16 -4q57 0 116 57.5t138 190.5q-48 16 -73 32zM256 305 q12 -16 32.5 -28t35.5 -15q73 156 79 244l-102 -141q0 -21 -25 -33l-18 -27h-2z" />
<glyph unicode="&#xf9;" horiz-adv-x="849" d="M-147 72q0 97 67 217l154 278q7 14 17.5 20.5t17.5 7.5t20 1q7 0 30 -7t38 -7q9 0 35.5 27t37.5 30l-243 -459q-37 -68 -37 -114q0 -54 53 -54q25 0 104 86t136 187l159 284q15 27 47 27q15 0 37 -7t37 -7q9 0 35 26t39 31l-260 -489q-33 -59 -33 -91q0 -41 53 -41 q69 0 210 128.5t274 314.5l16 -15q-31 -46 -69.5 -97.5t-101.5 -122.5t-124.5 -125.5t-135 -93t-136.5 -38.5q-107 0 -121 172q-86 -98 -109 -118q-55 -50 -126 -54h-17q-55 0 -79.5 34t-24.5 69zM172 918q0 10 9.5 16t21.5 6q34 0 80.5 -26.5t123 -78t140.5 -85.5v-15 q-66 34 -168.5 68.5t-154.5 59t-52 55.5z" />
<glyph unicode="&#xfa;" horiz-adv-x="849" d="M-147 72q0 97 67 217l154 278q7 14 17.5 20.5t17.5 7.5t20 1q7 0 30 -7t38 -7q9 0 35.5 27t37.5 30l-243 -459q-37 -68 -37 -114q0 -54 53 -54q25 0 104 86t136 187l159 284q15 27 47 27q15 0 37 -7t37 -7q9 0 35 26t39 31l-260 -489q-33 -59 -33 -91q0 -41 53 -41 q69 0 210 128.5t274 314.5l16 -15q-31 -46 -69.5 -97.5t-101.5 -122.5t-124.5 -125.5t-135 -93t-136.5 -38.5q-107 0 -121 172q-86 -98 -109 -118q-55 -50 -126 -54h-17q-55 0 -79.5 34t-24.5 69zM268 719v14q65 34 141 85.5t122.5 78.5t80.5 27q11 0 21 -6.5t10 -16.5 q0 -31 -52.5 -55t-154.5 -58.5t-168 -68.5z" />
<glyph unicode="&#xfb;" horiz-adv-x="849" d="M-147 72q0 97 67 217l154 278q7 14 17.5 20.5t17.5 7.5t20 1q7 0 30 -7t38 -7q9 0 35.5 27t37.5 30l-243 -459q-37 -68 -37 -114q0 -54 53 -54q25 0 104 86t136 187l159 284q15 27 47 27q15 0 37 -7t37 -7q9 0 35 26t39 31l-260 -489q-33 -59 -33 -91q0 -41 53 -41 q69 0 210 128.5t274 314.5l16 -15q-31 -46 -69.5 -97.5t-101.5 -122.5t-124.5 -125.5t-135 -93t-136.5 -38.5q-107 0 -121 172q-86 -98 -109 -118q-55 -50 -126 -54h-17q-55 0 -79.5 34t-24.5 69zM216 769q-1 4 7 11q33 26 120.5 83t115.5 79q19 16 35 0q146 -157 147 -158 q10 -10 2 -11q-4 -1 -14 5q-102 70 -152 107q-27 -17 -123.5 -59.5t-120.5 -55.5q-14 -8 -17 -1z" />
<glyph unicode="&#xfc;" horiz-adv-x="849" d="M-147 72q0 97 67 217l154 278q7 14 17.5 20.5t17.5 7.5t20 1q7 0 30 -7t38 -7q9 0 35.5 27t37.5 30l-243 -459q-37 -68 -37 -114q0 -54 53 -54q25 0 104 86t136 187l159 284q15 27 47 27q15 0 37 -7t37 -7q9 0 35 26t39 31l-260 -489q-33 -59 -33 -91q0 -41 53 -41 q69 0 210 128.5t274 314.5l16 -15q-31 -46 -69.5 -97.5t-101.5 -122.5t-124.5 -125.5t-135 -93t-136.5 -38.5q-107 0 -121 172q-86 -98 -109 -118q-55 -50 -126 -54h-17q-55 0 -79.5 34t-24.5 69zM293 825q4 25 26.5 43.5t47.5 18.5q24 0 39.5 -19t9.5 -43q-4 -23 -27 -41 t-47 -18q-27 0 -40.5 17.5t-8.5 41.5zM549 825q4 25 26.5 43.5t47.5 18.5t40 -18.5t9 -43.5q-5 -23 -27 -41t-47 -18q-26 0 -40 17.5t-9 41.5z" />
<glyph unicode="&#xfd;" horiz-adv-x="782" d="M-410 -455q0 44 19.5 84t57.5 73t81 60.5t104 53t111.5 43.5t116.5 39l86 174q-134 -103 -203 -103q-50 0 -79 38t-29 102q0 21 8.5 59t25.5 68l168 311q9 19 27 34t31 15q22 0 44.5 -8t35.5 -8q9 0 35 27.5t38 31.5l-250 -467q-23 -43 -28.5 -60t-5.5 -40q0 -58 30 -58 t101.5 42t107.5 106l215 385q6 11 10 18t11.5 15t16.5 12t20 4q23 0 41 -8t32 -8q8 0 35.5 27.5t40.5 31.5q-6 -10 -49 -94t-87 -166.5t-118 -204t-147 -223.5q65 40 111.5 78t105.5 97t82 81l270 254l16 -15l-270 -258q-20 -19 -75.5 -72.5t-78 -73t-72.5 -55t-108 -67.5 q-21 -36 -55.5 -104t-60.5 -119.5t-66.5 -113t-79.5 -101t-93.5 -67t-113.5 -27.5q-70 0 -118 44.5t-48 112.5zM-393 -453q0 -38 24.5 -62t61.5 -24q50 0 95.5 32.5t111.5 120.5t174 263q-68 -23 -113 -40t-106 -42.5t-99.5 -50t-75.5 -55.5t-55 -66.5t-18 -75.5zM223 719 v14q65 34 141 85.5t122.5 78.5t80.5 27q11 0 21 -6.5t10 -16.5q0 -31 -52.5 -55t-154.5 -58.5t-168 -68.5z" />
<glyph unicode="&#xff;" horiz-adv-x="782" d="M-410 -455q0 44 19.5 84t57.5 73t81 60.5t104 53t111.5 43.5t116.5 39l86 174q-134 -103 -203 -103q-50 0 -79 38t-29 102q0 21 8.5 59t25.5 68l168 311q9 19 27 34t31 15q22 0 44.5 -8t35.5 -8q9 0 35 27.5t38 31.5l-250 -467q-23 -43 -28.5 -60t-5.5 -40q0 -58 30 -58 t101.5 42t107.5 106l215 385q6 11 10 18t11.5 15t16.5 12t20 4q23 0 41 -8t32 -8q8 0 35.5 27.5t40.5 31.5q-6 -10 -49 -94t-87 -166.5t-118 -204t-147 -223.5q65 40 111.5 78t105.5 97t82 81l270 254l16 -15l-270 -258q-20 -19 -75.5 -72.5t-78 -73t-72.5 -55t-108 -67.5 q-21 -36 -55.5 -104t-60.5 -119.5t-66.5 -113t-79.5 -101t-93.5 -67t-113.5 -27.5q-70 0 -118 44.5t-48 112.5zM-393 -453q0 -38 24.5 -62t61.5 -24q50 0 95.5 32.5t111.5 120.5t174 263q-68 -23 -113 -40t-106 -42.5t-99.5 -50t-75.5 -55.5t-55 -66.5t-18 -75.5zM293 825 q4 25 26.5 43.5t47.5 18.5q24 0 39.5 -19t9.5 -43q-4 -23 -27 -41t-47 -18q-27 0 -40.5 17.5t-8.5 41.5zM549 825q4 25 26.5 43.5t47.5 18.5t40 -18.5t9 -43.5q-5 -23 -27 -41t-47 -18q-26 0 -40 17.5t-9 41.5z" />
<glyph unicode="&#x152;" horiz-adv-x="2109" d="M-4 319q0 177 117 394t307 397q204 175 350 193h86q-142 -69 -209.5 -126t-161.5 -184q-338 -479 -338 -829q0 -91 49 -148t123 -57q117 0 251 125.5t259 351.5q222 400 222 645q0 86 -27.5 126t-87.5 40q-67 0 -146 -53.5t-144.5 -134t-109.5 -184t-44 -195.5 q0 -71 36 -112.5t93 -41.5q56 0 108 29.5t89.5 75t66 98t43 100t14.5 80.5q0 50 -24 85.5t-52 35.5q-53 0 -118 -74l-15 15q80 80 133 80q42 0 70.5 -43t28.5 -99q0 -60 -26.5 -130t-71 -131.5t-110.5 -102.5t-136 -41q-68 0 -110 47.5t-42 128.5q0 118 71 256t182 234 t214 96q90 0 158.5 -89.5t68.5 -205.5q0 -66 -28 -172q103 41 239 32q-29 43 -50 102.5t-21 100.5l-3 -4q0 138 111 232t270 92q113 -1 194 -74t81 -172q0 -87 -82.5 -153t-192.5 -66q-39 0 -78 7.5t-65.5 16t-71.5 25.5q3 -102 43 -168q6 -8 42.5 -27t37.5 -41 q0 -21 -24 -24q-19 -3 -39.5 9t-31.5 25l-11 13q-37 22 -83.5 23.5t-93 -14.5t-91.5 -50t-79.5 -79t-55.5 -106.5t-21 -127.5q0 -166 96.5 -285t233.5 -119q124 0 231 62t170 166.5t63 224.5q0 97 -49.5 157t-130.5 60q-82 0 -160.5 -50.5t-126 -126t-47.5 -147.5 q0 -70 41.5 -116.5t102.5 -46.5q42 0 76.5 15.5t56 39.5t38 57.5t24.5 64t13 65.5t6 55t1 40h24q2 -36 -1 -77.5t-17.5 -94.5t-39.5 -95t-72 -70.5t-109 -28.5q-73 0 -122.5 56t-49.5 136q0 82 52 164t137 135.5t173 53.5q92 0 150.5 -69t58.5 -177q0 -132 -69 -245.5 t-182.5 -179t-241.5 -65.5q-212 0 -344.5 94t-167.5 252q-126 -154 -274 -241.5t-284 -87.5q-140 0 -231.5 108t-91.5 264zM1468 975q42 -20 66.5 -29.5t65 -18.5t83.5 -9q92 0 171 56t79 138q0 71 -54.5 122.5t-129.5 51.5q-68 -1 -121.5 -28t-86.5 -72t-51 -98.5 t-20 -112.5h-2z" />
<glyph unicode="&#x153;" horiz-adv-x="1052" d="M-104 160q0 85 41 169t105.5 146t149.5 100.5t168 38.5q50 0 89.5 -29t60.5 -79q68 51 142 79.5t130 28.5q48 0 82.5 -32.5t34.5 -79.5q0 -57 -37.5 -106t-91.5 -80t-115.5 -53.5t-108.5 -32t-71 -9.5q-1 -2 -6.5 -13.5t-6.5 -13.5t-5 -12l-5 -12.5t-4 -11.5t-3.5 -13.5 t-2.5 -13.5t-2.5 -16t-1 -17t-0.5 -20q0 -76 56 -76q58 0 132 36t142 90t133 118t111 120t69 95l17 -15h-2q-20 -34 -63.5 -89t-109.5 -123t-136.5 -126.5t-150 -98.5t-144.5 -40q-60 0 -103 31.5t-63 81.5q-129 -113 -273 -113q-69 0 -113 59t-44 132zM12 66q0 -70 39 -70 q56 0 117 58.5t139 187.5q-114 38 -114 102q0 31 18.5 48.5t44.5 17.5q43 0 43 -43q0 -16 -13.5 -26.5t-27.5 -12.5l-14 -2q7 -21 33 -35.5t49 -18.5q45 96 60 152.5t15 114.5q0 51 -49 51q-58 0 -140.5 -101.5t-141 -227t-58.5 -195.5zM496 270q54 0 127 52t123.5 116.5 t50.5 102.5q0 47 -43 47q-45 0 -113 -83t-145 -235z" />
<glyph unicode="&#x178;" horiz-adv-x="2148" d="M4 1251q0 275 479 275q90 0 160.5 -19.5t112.5 -47t75 -71.5t47.5 -77.5t28.5 -79.5q14 5 59 23.5t60.5 23t53 14t76 12.5t89.5 3q174 0 297 -124t123 -296q0 -84 -33.5 -172.5t-76.5 -153t-98.5 -152.5t-84.5 -153q-2 -5 -4 -14.5t-7 -36.5t-7.5 -51.5t-0.5 -54.5 t10 -51.5t27 -36.5t48 -15q53 0 105 46.5t99 128t87 165.5t88.5 186t85.5 162q67 108 132.5 196.5t153.5 180t178.5 153.5t203 101t229.5 39q87 0 155.5 -15t108 -39.5t67.5 -54t38.5 -58.5t15 -53.5t3.5 -39.5l-1 -15q-22 13 -23 13q-10 70 -42.5 120t-80.5 76t-98 37.5 t-107 11.5q-123 0 -259.5 -78t-266.5 -216.5t-250.5 -336t-212.5 -427.5q-49 -127 -97.5 -242t-78.5 -183t-35 -81q-18 -46 -43 -90q10 -12 34 -36t81 -74t122 -99t158 -104.5t188 -96.5t213 -68.5t232 -27.5q174 0 323.5 79.5t240 224t90.5 322.5q0 102 -40.5 196.5 t-106.5 161.5t-152.5 106.5t-175.5 39.5q-152 0 -245 -81.5t-93 -205.5q0 -51 15.5 -94t40 -70t54.5 -48t60 -31.5t54.5 -17t39.5 -7.5l16 -2q0 -22 -20 -22q-122 0 -205.5 82t-83.5 210q0 140 104.5 230t262.5 90q100 0 192.5 -43t159.5 -115t107 -171t40 -208 q0 -180 -90.5 -329.5t-246 -234.5t-341.5 -85q-240 0 -504 126t-534 382q-119 -238 -314 -378t-456 -140q-141 0 -262.5 38.5t-204 103.5t-129.5 151t-47 180q0 96 47.5 184t130.5 154t204.5 105.5t260.5 39.5q95 0 187 -23t159 -54.5t138.5 -81t111.5 -84.5t91.5 -83 t66.5 -61q30 42 43 78q32 66 98 414q-119 -143 -176 -187.5t-115 -44.5q-83 0 -132.5 70.5t-49.5 187.5q0 72 23.5 145.5t58.5 132.5t76.5 123t76.5 118t58.5 117t23.5 120q0 76 -27 136t-71.5 96t-98 54.5t-110.5 18.5q-82 0 -159 -18.5t-177 -65.5q11 -74 -14 -174 q-22 -83 -68 -157l-16 4q50 94 66 155q9 43 12.5 84t2.5 60l-1 20q-128 -76 -222 -122.5t-156.5 -64.5t-92.5 -22t-74 -4q-135 0 -238.5 79t-103.5 185zM18 1251q0 -105 98.5 -175t229.5 -70q97 0 220.5 52t320.5 165q-17 66 -44.5 116t-73.5 90.5t-118 62t-168 21.5 q-97 0 -176.5 -13t-146.5 -41.5t-104.5 -81.5t-37.5 -126zM209 -383q0 -101 85.5 -188.5t224.5 -138t294 -50.5q82 0 159 15t136 36t117 56.5t96.5 64t80 73t61 68t46 64.5t29.5 47t16 29q-115 113 -162 153q-275 234 -579 234q-267 0 -435.5 -133t-168.5 -330zM1956 1489 q4 25 26.5 43t47.5 18q24 0 39.5 -18.5t9.5 -42.5q-4 -23 -27 -41t-47 -18q-27 0 -40.5 17.5t-8.5 41.5zM2212 1489q4 25 26.5 43t47.5 18t40 -18t9 -43q-5 -23 -27 -41t-47 -18q-26 0 -40 17.5t-9 41.5z" />
<glyph unicode="&#x2000;" horiz-adv-x="952" />
<glyph unicode="&#x2001;" horiz-adv-x="1905" />
<glyph unicode="&#x2002;" horiz-adv-x="952" />
<glyph unicode="&#x2003;" horiz-adv-x="1905" />
<glyph unicode="&#x2004;" horiz-adv-x="635" />
<glyph unicode="&#x2005;" horiz-adv-x="476" />
<glyph unicode="&#x2006;" horiz-adv-x="317" />
<glyph unicode="&#x2007;" horiz-adv-x="317" />
<glyph unicode="&#x2008;" horiz-adv-x="238" />
<glyph unicode="&#x2009;" horiz-adv-x="381" />
<glyph unicode="&#x200a;" horiz-adv-x="105" />
<glyph unicode="&#x2010;" horiz-adv-x="548" d="M37 309q0 22 51 51q3 2 13.5 8t13 7.5t11 6.5t11 6t10 4.5t11.5 4t10.5 2.5t12.5 2.5t13 1t15 0.5q23 0 81.5 -8t71.5 -8q35 0 68 7t41 7q6 0 7 -2t1 -10q0 -5 -3 -15t-14 -25.5t-27.5 -28t-46.5 -22t-69 -9.5q-6 0 -82.5 11t-125.5 11q-13 0 -33.5 -7t-28.5 -7 q-5 0 -8.5 3.5t-3.5 8.5z" />
<glyph unicode="&#x2011;" horiz-adv-x="548" d="M37 309q0 22 51 51q3 2 13.5 8t13 7.5t11 6.5t11 6t10 4.5t11.5 4t10.5 2.5t12.5 2.5t13 1t15 0.5q23 0 81.5 -8t71.5 -8q35 0 68 7t41 7q6 0 7 -2t1 -10q0 -5 -3 -15t-14 -25.5t-27.5 -28t-46.5 -22t-69 -9.5q-6 0 -82.5 11t-125.5 11q-13 0 -33.5 -7t-28.5 -7 q-5 0 -8.5 3.5t-3.5 8.5z" />
<glyph unicode="&#x2012;" horiz-adv-x="548" d="M37 309q0 22 51 51q3 2 13.5 8t13 7.5t11 6.5t11 6t10 4.5t11.5 4t10.5 2.5t12.5 2.5t13 1t15 0.5q23 0 81.5 -8t71.5 -8q35 0 68 7t41 7q6 0 7 -2t1 -10q0 -5 -3 -15t-14 -25.5t-27.5 -28t-46.5 -22t-69 -9.5q-6 0 -82.5 11t-125.5 11q-13 0 -33.5 -7t-28.5 -7 q-5 0 -8.5 3.5t-3.5 8.5z" />
<glyph unicode="&#x2013;" horiz-adv-x="847" d="M8 315q0 19 26 42t64 36q108 45 181 45q85 0 303 -41q49 -8 88 -8q54 0 102 25q28 14 41 14q23 0 23 -18q0 -10 -29 -35q-107 -77 -219 -86h-6q-19 0 -33 2l-268 37l-60 6q-89 6 -141 -15q-38 -14 -60 -14q-12 0 -12 10z" />
<glyph unicode="&#x2014;" horiz-adv-x="1236" d="M49 315q0 19 26 42t64 36q108 45 180 45q68 0 278 -12.5t296 -28.5q49 -8 88 -8q54 0 102 25q28 14 41 14q23 0 23 -18q0 -10 -29 -35q-107 -77 -219 -86h-6q-19 0 -33 2l-538 37l-60 6q-88 6 -141 -15q-38 -14 -60 -14q-12 0 -12 10z" />
<glyph unicode="&#x2018;" horiz-adv-x="0" d="M-291 1620q0 10 10.5 16t22.5 6q37 0 86.5 -28t130.5 -83t150 -91v-15q-49 25 -112 49.5t-110 40t-89.5 32t-65.5 34.5t-23 39z" />
<glyph unicode="&#x2019;" horiz-adv-x="323" d="M301 1008q0 7 5.5 11t17 9t18.5 10q64 48 64 82q0 21 -15 27q-80 39 -80 100q0 48 35 86.5t80 38.5q36 0 64 -28t28 -66q0 -63 -23 -112t-81 -113q-56 -60 -95 -60q-18 3 -18 15z" />
<glyph unicode="&#x201a;" horiz-adv-x="499" d="M43 -160q0 7 5.5 11.5t17 9.5t18.5 10q63 47 63 82q0 21 -14 27q-80 39 -80 100q0 48 35 86.5t80 38.5q36 0 64 -28t28 -66q0 -64 -23 -113t-81 -113q-55 -59 -95 -59q-18 2 -18 14z" />
<glyph unicode="&#x201c;" horiz-adv-x="446" d="M260 1087q0 63 23.5 112.5t81.5 113.5q55 59 94 59q18 -2 18 -14q0 -7 -5.5 -11.5t-17 -9.5t-18.5 -10q-63 -47 -63 -82q0 -20 14 -26q80 -39 80 -101q0 -48 -35 -86.5t-80 -38.5q-36 0 -64 28t-28 66zM496 1087q0 64 23 113t81 113q55 59 94 59q19 -2 19 -14 q0 -7 -5.5 -11.5t-17 -9.5t-18.5 -10q-64 -48 -64 -82q0 -20 15 -26q79 -39 79 -101q0 -48 -34.5 -86.5t-79.5 -38.5q-36 0 -64 28t-28 66z" />
<glyph unicode="&#x201d;" horiz-adv-x="446" d="M260 1008q0 7 5.5 11t17 9t18.5 10q64 48 64 82q0 21 -15 27q-80 39 -80 100q0 48 35 86.5t80 38.5q36 0 64 -28t28 -66q0 -63 -23 -112t-81 -113q-56 -60 -94 -60q-19 3 -19 15zM496 1008q0 7 5.5 11t17 9t18.5 10q63 47 63 82q0 21 -14 27q-80 39 -80 100q0 48 35 86.5 t80 38.5q36 0 64 -28t28 -66q0 -63 -23.5 -111.5t-81.5 -113.5q-56 -60 -94 -60q-18 3 -18 15z" />
<glyph unicode="&#x201e;" horiz-adv-x="727" d="M43 -160q0 7 5.5 11.5t17 9.5t18.5 10q63 47 63 82q0 21 -14 27q-80 39 -80 100q0 48 35 86.5t80 38.5q36 0 64 -28t28 -66q0 -64 -23 -113t-81 -113q-55 -59 -95 -59q-18 2 -18 14zM287 -160q0 7 5.5 11.5t17 9.5t18.5 10q63 47 63 82q0 21 -14 27q-80 39 -80 100 q0 48 35 86.5t80 38.5q36 0 64 -28t28 -66q0 -63 -23.5 -112.5t-81.5 -113.5q-55 -59 -94 -59q-18 2 -18 14z" />
<glyph unicode="&#x2022;" horiz-adv-x="524" d="M51 477q0 73 55.5 155.5t131.5 135.5t135 53q52 0 81 -29.5t29 -82.5q0 -74 -41.5 -159.5t-113 -147.5t-146.5 -62q-54 0 -92.5 39.5t-38.5 97.5z" />
<glyph unicode="&#x2026;" horiz-adv-x="1228" d="M86 82q0 46 37 84.5t82 38.5q38 0 62 -29t24 -74q0 -46 -36.5 -84t-82.5 -38q-38 0 -62 28.5t-24 73.5zM496 82q0 46 36.5 84.5t81.5 38.5q38 0 62 -29t24 -74q0 -46 -36.5 -84t-81.5 -38q-38 0 -62 28.5t-24 73.5zM905 82q0 46 37 84.5t82 38.5q38 0 62 -29t24 -74 q0 -46 -37 -84t-82 -38q-38 0 -62 28.5t-24 73.5z" />
<glyph unicode="&#x202f;" horiz-adv-x="381" />
<glyph unicode="&#x2039;" horiz-adv-x="356" d="M86 383l322 205l-17 -47l-250 -158l150 -182l-19 -47z" />
<glyph unicode="&#x203a;" horiz-adv-x="356" d="M86 154l16 47l250 157l-149 183l18 47l187 -230z" />
<glyph unicode="&#x205f;" horiz-adv-x="476" />
<glyph unicode="&#x20ac;" horiz-adv-x="962" d="M43 340l8 33h101q12 41 43 102h-78l8 33h86q100 171 270.5 285t329.5 114q72 0 123 -47.5t51 -120.5q0 -64 -42.5 -107.5t-104.5 -43.5q-46 0 -72.5 22t-26.5 60q0 47 24.5 75.5t65.5 28.5q18 0 43 -22q-34 -22 -34 -41q0 -15 8 -27t20 -12q25 0 50.5 27t25.5 59 q0 56 -41.5 90.5t-95.5 34.5q-120 0 -239 -109t-201 -266h311l-8 -33h-318q-29 -63 -43 -102h295l-8 -33h-297q-21 -74 -21 -135q0 -36 5.5 -64.5t20 -57t45.5 -44.5t77 -16q84 0 187.5 66t199.5 171l18 -14q-99 -114 -216.5 -187t-225.5 -73q-76 0 -130.5 18.5t-82 50.5 t-39.5 67t-12 77q0 71 18 141h-98z" />
<glyph unicode="&#xe000;" horiz-adv-x="675" d="M0 0v676h676v-676h-676z" />
<glyph unicode="&#xfb01;" horiz-adv-x="905" d="M-920 -528q0 81 59.5 148t135.5 67q38 0 69 -32t31 -73q0 -40 -33 -68t-79 -28q-20 0 -35 11t-33 42q64 9 64 33q0 22 -12.5 37.5t-30.5 15.5q-30 0 -68.5 -56t-38.5 -116q0 -59 52 -101t122 -42q55 0 104.5 30.5t97 92.5t91 138.5t96 188t102.5 219.5t121.5 253.5 t141.5 271.5h-123l20 37h125q38 66 84.5 139.5t120.5 177.5t142.5 183.5t143.5 136.5t130 57q29 0 54.5 -24t25.5 -52q0 -59 -37.5 -140.5t-102 -166.5t-162.5 -169t-208 -142h112l-20 -37h-145q-50 -94 -114.5 -220.5t-107.5 -210t-98 -187.5t-96.5 -172t-92 -143.5 t-95 -121.5t-95.5 -86t-104.5 -58t-110.5 -18q-87 0 -145 53.5t-58 131.5zM219 541q125 92 219.5 188.5t144 175.5t73.5 138.5t24 99.5q0 59 -35 59q-49 0 -206 -258.5t-220 -402.5zM285 92q0 62 36 140.5t105 185.5t84 135q1 3 4 8.5t4.5 7.5t4 7t4 6.5l4.5 4.5t6 4 l7.5 2.5t9.5 2t11 0.5q35 0 47 -9t23 -9q8 0 36.5 29t41.5 32l-281 -496q-20 -39 -20 -77q0 -23 12.5 -38.5t36.5 -15.5q35 0 147 104.5t200 200t128 144.5l16 -15q-77 -92 -137.5 -159t-141 -148.5t-148 -125.5t-113.5 -44q-56 0 -91.5 32.5t-35.5 90.5zM672 815 q0 43 31.5 75t72.5 32q32 0 53 -21t21 -49q0 -44 -31 -80.5t-69 -36.5q-32 0 -55 24t-23 56z" />
<glyph unicode="&#xfb02;" horiz-adv-x="905" d="M-920 -528q0 81 59.5 148t135.5 67q38 0 69 -32t31 -73q0 -40 -33 -68t-79 -28q-20 0 -35 11t-33 42q64 9 64 33q0 22 -12.5 37.5t-30.5 15.5q-30 0 -68.5 -56t-38.5 -116q0 -59 52 -101t122 -42q55 0 104.5 30.5t97 92.5t91 138.5t96 188t102.5 219.5t121.5 253.5 t141.5 271.5h-123l20 37h125q38 66 84.5 139.5t120.5 177.5t142.5 183.5t143.5 136.5t130 57q29 0 54.5 -24t25.5 -52q0 -59 -37.5 -140.5t-102 -166.5t-162.5 -169t-208 -142h112l-20 -37h-145q-50 -94 -114.5 -220.5t-107.5 -210t-98 -187.5t-96.5 -172t-92 -143.5 t-95 -121.5t-95.5 -86t-104.5 -58t-110.5 -18q-87 0 -145 53.5t-58 131.5zM219 541q125 92 219.5 188.5t144 175.5t73.5 138.5t24 99.5q0 59 -35 59q-49 0 -206 -258.5t-220 -402.5zM338 141q0 83 48.5 209t125 258t171.5 267t186 240t171 171t125 66q25 0 44.5 -23 t19.5 -51q-1 -39 -22 -101.5t-69 -147.5t-114.5 -171t-168.5 -176.5t-220 -159.5q-7 -14 -34 -71.5t-44.5 -97t-39 -96t-33 -106t-11.5 -90.5q0 -19 12.5 -34t30.5 -15q81 0 203.5 134t216.5 315l16 -15q-63 -113 -116.5 -192.5t-114 -145.5t-125 -100.5t-135.5 -38.5 q-55 -3 -89 44.5t-34 127.5zM678 590q90 53 179.5 154t149 203t97 190.5t37.5 128.5q0 17 -8.5 30t-20.5 13q-32 0 -120 -128.5t-178.5 -299t-135.5 -291.5z" />
</font>
</defs>
</svg>
